HAPPY☆きたかた
KIRA☆GIRL

ADVANCED

Level: 5
BPM: 172
Notes: 245

1
口口口口 |----|
口口口口 |----|
口口口口 |----|
口口口口 |----|
2
口口口口 |----|
口②口口 |----|
①口口口 |①---|
口口口口 |②---|
3
口②①口 |①---|
口口③⑤ |②---|
口口口④ |③---|
口口口口 |④-⑤-|
4
口口口口 |----|
口②口口 |--①-|
口口①口 |----|
口口口口 |②---|
5
②口口① |①---|
口③③口 |②---|
口④④口 |③---|
口口口口 |--④-|
6
①口①口 |----|
口口口口 |----|
口口口口 |----|
口口口口 |--①-|
7
口口口口 |----|
口①口① |--①-|
②口②口 |----|
口口口口 |--②-|
8
口口口口 |----|
口②②口 |--①-|
口②②口 |----|
口①口① |--②-|
9
口口口口 |----|
口口口口 |----|
口口口口 |----|
口口口口 |----|
10
口口口口 |----|
②口口口 |----|
口①口口 |①---|
口口口口 |②---|
11
口①口口 |①---|
口③口口 |----|
口口②口 |②---|
口口口口 |③---|
12
口口①口 |①---|
口口③口 |----|
口口口② |②---|
口口口口 |③---|
13
口口口① |①---|
口口口口 |----|
口②②口 |②---|
口口口口 |----|
14
口②②口 |①---|
口①①口 |----|
口口口口 |②---|
口口口口 |----|
15
口④④① |①---|
口②③口 |②-③-|
口口口口 |--④-|
口口口口 |----|
16
口口口口 |①---|
口口口口 |②-③-|
口③②口 |--④-|
①④④口 |----|
17
口口口口 |--①-|
口①②口 |----|
口②①口 |--②-|
口口口口 |----|
18
①口口② |--①-|
口口口③ |----|
口口口④ |②--③|
口口口① |--④-|
19
口口口口 |--①-|
口②①口 |----|
口①②口 |--②-|
口口口口 |----|
20
②口口① |--①-|
③口口口 |----|
④口口口 |②--③|
①口口口 |--④-|
21
口口口口 |--①-|
口①②口 |----|
口②①口 |--②-|
口口口口 |----|
22
①口口② |--①-|
口口口③ |----|
口口口④ |②--③|
口口口① |--④-|
23
口口口口 |--①-|
口②①口 |----|
口①②口 |--②-|
口口口口 |----|
24
②口口① |--①-|
③口口口 |----|
④口口口 |②--③|
①口口口 |--④-|
25
口口口口 |①---|
口①①口 |----|
口①①口
口口口口

口口口口
口口③口
口口口② |②---|
口口口口 |③---|
26
口③④口 |①---|
口②口口 |②---|
口①口口 |③---|
口口口口 |④---|
27
口口口口 |①---|
①口口② |②---|
④口口③ |③---|
口口口口 |④---|
28
口口口口 |①---|
口口口口 |----|
口口口口 |----|
①口口口 |----|
29
口口口口 |①---|
①口口① |----|
①③口① |②---|
②口口口 |③---|
30
口口口口 |①---|
口④③口 |②---|
口口②口 |③---|
口口①口 |④---|
31
口②口① |①---|
口口③口 |②-③-|
口⑤口口 |--④-|
口④口口 |--⑤-|
32
口口口口 |----|
口口口口 |----|
口口口口 |----|
口口口口 |----|
33
口口口口 |①---|
口①①口 |----|
口①①口
口口口口

口口口口
口口③口
口口口② |②---|
口口口口 |③---|
34
口③④口 |①---|
口②口口 |②---|
口①口口 |③---|
口口口口 |④---|
35
口口口口 |①---|
①口口② |②---|
④口口③ |③---|
口口口口 |④---|
36
口口口口 |①---|
口口口口 |②---|
口③④口 |③---|
①口口② |④---|
37
③②口① |①---|
口④④口 |②-③-|
口⑤⑤口 |--④-|
口口口口 |--⑤-|
38
口口口口 |----|
口口口口 |①---|
①口口② |②---|
③口口口 |③---|
39
口口⑤口 |①---|
口②口口 |②-③-|
口③④口 |--④-|
口口口① |--⑤-|
40
口口口口 |----|
口口口口 |----|
口口口口 |----|
口口口口 |----|
41
口①口② |①---|
口口③③ |----|
口口口口 |②---|
口口口口 |--③-|
42
口口口口 |--①-|
口口口口 |--②-|
口口①① |----|
口口②② |----|
43
②口①口 |①---|
③③口口 |----|
口口口口 |②---|
口口口口 |--③-|
44
口口口口 |--①-|
口口口口 |--②-|
①①口口 |----|
②②口口 |----|
45
口①①口 |①---|
②口口② |--②-|
口口口口 |----|
口口口口 |----|
46
口口口口 |----|
②口口② |--①-|
②口口② |----|
口①①口 |--②-|
47
口口口口 |----|
口口口口 |----|
口口口口 |----|
口口口口 |----|
48
口口口口 |----|
口②口口 |----|
①口口口 |①---|
口口口口 |②---|
49
口口①口 |①---|
口口口② |②---|
口口③口 |③---|
口④⑤口 |④-⑤-|
50
口口口口 |----|
①口口② |--①-|
①口口② |----|
口口口口 |②---|
51
口口①口 |①---|
口②口口 |②---|
⑥⑤④③ |③-④-|
口口口口 |⑤-⑥-|
52
口口口口 |----|
口口口口 |----|
口口口口 |①-②-|
①②③④ |③-④-|
53
口口口口 |----|
口口口口 |----|
④③②① |①-②-|
口口口口 |③-④-|
54
①①②② |----|
口③口口 |--①-|
口口口口 |--②-|
口口口口 |--③-|
55
口②②口 |①---|
④口口④ |--②-|
口①①口 |--③-|
③口口③ |--④-|
56
口口口口 |----|
口②①口 |----|
口口口口 |①---|
口口口口 |②---|
57
口口口口 |①---|
口口口口 |②---|
口②①口 |③-④-|
⑥⑤④③ |⑤-⑥-|
58
口口口口 |----|
口口口口 |----|
口①②口 |①---|
口口口口 |②---|
59
③口口③ |①---|
③①①③ |----|
口②②口 |②---|
口口口口 |--③-|
60
口口口口 |----|
口口口口 |----|
口口口口 |----|
口口口口 |----|
61
口①②口 |①---|
口③①口 |--②-|
口②口口 |----|
口口③口 |--③-|
62
口口口口 |----|
②口口② |--①-|
②口①② |----|
口①口口 |--②-|

不確定度: 0

最終更新:2014年12月11日 22:37