HAPPY☆きたかた
KIRA☆GIRL

EXTREME

Level: 8
BPM: 172
Notes: 457

1
口口口口 |----|
口口口口 |----|
口口口口 |----|
口口口口 |----|
2
口口口口 |----|
口口口口 |----|
②口口口 |①---|
①口口口 |②---|
3
①①①① |①---|
口口口口 |②---|
口口⑤② |③---|
口④口③ |④-⑤-|
4
③口口③ |①---|
①①①① |--②-|
口口口口 |----|
②口口② |③---|
5
③口⑤口 |①---|
口④口⑥ |②---|
①①①① |③-④-|
口②②口 |⑤-⑥-|
6
②口口② |①---|
口口口口 |----|
口口口口 |----|
①①①① |--②-|
7
口⑥③口 |--①-|
①②⑤④ |②-③-|
口⑥③口 |--④-|
口口口口 |⑤-⑥-|
8
⑥口口③ |--①-|
口口口口 |②-③-|
⑥口口③ |--④-|
①②⑤④ |⑤-⑥-|
9
口口口口 |----|
口①②口 |①---|
口③口口 |②---|
口口口口 |③---|
10
口⑦③口 |①---|
②⑧④口 |②---|
口⑨⑤① |③④⑤⑥|
口⑩⑥口 |⑦⑧⑨⑩|
11
②④③① |①---|
②口口① |②---|
口口口口 |③---|
③口口④ |④---|
12
②④③① |①---|
②口口① |②---|
口口口口 |③---|
③口口④ |④---|
13
口口口口 |①---|
口口口口 |----|
口①①口
口口口口

口口口②
口口③口
口⑤口口 |②-③-|
④口口口 |④-⑤-|
14
口口③口 |--①-|
口口口③ |②-③-|
口口口口 |--④-|
④②①⑤ |⑤---|
15
②①④⑤ |①---|
①④①④ |②-③-|
口③口口 |--④-|
口口口口 |--⑤-|
16
④④④④ |①---|
口口口口 |②-③-|
口③①口 |--④-|
口口②口 |----|
17
口⑥③口 |--①-|
⑥口口③ |②-③-|
口①④口 |--④-|
②口口⑤ |⑤-⑥-|
18
口口口口 |--①-|
口口①口 |②-③-|
口②口口
口口③口

④口口⑤
口⑥⑥口
④口口⑤ |④--⑤|
口口口口 |--⑥-|
19
口⑥③口 |--①-|
⑥口口③ |②-③-|
口①④口 |--④-|
②口口⑤ |⑤-⑥-|
20
口口口口 |--①-|
口口①口 |②-③-|
口②口口
口口③口

④口口⑤
口⑥⑥口
④口口⑤ |④--⑤|
口口口口 |--⑥-|
21
口③⑥口 |--①-|
③口口⑥ |②-③-|
口④①口 |--④-|
⑤口口② |⑤-⑥-|
22
口口口口 |--①-|
口①口口 |②-③-|
口口②口
口③口口

⑤口口④
口⑥⑥口
⑤口口④ |④--⑤|
口口口口 |--⑥-|
23
口③⑥口 |--①-|
③口口⑥ |②-③-|
口④①口 |--④-|
⑤口口② |⑤-⑥-|
24
口口口口 |--①-|
口①口口 |②-③-|
口③②口
口口口口

⑤⑥⑥④
口⑥口口
⑤口口④ |④--⑤|
口口口口 |--⑥-|
25
口口口口 |①---|
②③⑤④ |----|
口口①口 |②-③-|
口①①口 |④-⑤-|
26
口口①口 |----|
口②口口 |①---|
口口③口 |②---|
口口口口 |③---|
27
③⑤口口 |①---|
④⑤口口 |②---|
口口口② |③---|
口口口① |④-⑤-|
28
口口口口 |----|
口口口口 |----|
口口口口 |----|
口口口口 |----|
29
口①①口 |①---|
口①口口 |----|
口口①口
口①①口

口口口口
④⑤③②
口口口口 |②-③-|
口口口口 |④-⑤-|
30
口①口口 |----|
口口②口 |①---|
口③口口 |②---|
口口口口 |③---|
31
②口口③ |①---|
⑤口口⑤ |②-③-|
口④④口 |--④-|
①口口口 |--⑤-|
32
口口口口 |----|
口口口口 |----|
口口口口 |----|
口口口口 |----|
33
口③口口 |①---|
②①口④ |----|
口①⑤口 |②-③-|
口①①口 |④-⑤-|
34
口口①口 |----|
口②口口 |①---|
口口③口 |②---|
口口口口 |③---|
35
③⑤口口 |①---|
④⑤口口 |②---|
口口口② |③---|
口口口① |④-⑤-|
36
③口口口 |----|
口口口口 |①---|
口口口口 |②---|
口口②① |③---|
37
口①口口 |①---|
口口口口 |②-③-|
口②②口
③口口③

⑤⑤④④
口口口口
口口口口 |--④-|
口口口口 |--⑤-|
38
口口口口 |----|
①②③口 |①---|
①②③口 |②---|
口口口口 |③---|
39
⑤口口⑤ |①---|
口口口① |②-③-|
口④④① |--④-|
③口口② |--⑤-|
40
口口口口 |----|
④③②① |----|
⑧⑦⑥⑤ |①②③④|
口口口口 |⑤⑥⑦⑧|
41
④②③① |①---|
口口⑤⑤ |--②-|
口口口口 |③---|
口口口口 |④-⑤-|
42
口口口口 |--①-|
口口口口 |--②-|
口①口① |----|
②口口② |----|
43
①③②④ |①---|
⑤⑤口口 |--②-|
口口口口 |③---|
口口口口 |④-⑤-|
44
口口口口 |--①-|
口③③口 |--②-|
①口①口 |----|
②口口② |③---|
45
③③⑦⑦ |①-②-|
口口口口 |③-④-|
口⑧④口 |⑤-⑥-|
⑥⑤①② |⑦-⑧-|
46
③③⑦⑦ |①-②-|
⑧⑧⑧⑧ |③-④-|
口口④口 |⑤-⑥-|
⑥⑤①② |⑦-⑧-|
47
③③⑦⑦ |①-②-|
口口口口 |③-④-|
口口④口 |⑤-⑥-|
⑥⑤①② |⑦---|
48
口口⑬⑬ |①②③④|
④③②① |⑤⑥⑦⑧|
⑧⑦⑥⑤ |⑨⑩⑪⑫|
⑫⑪⑩⑨ |⑬---|
49
①②口口 |①---|
②①口口 |②---|
口口口口
口口口口

⑤口③口
口⑤口口
口口⑤④ |③---|
口③口⑤ |④-⑤-|
50
④④③③ |①---|
口口口口 |②-③-|
②口口口 |----|
①口口口 |④---|
51
⑥口口口 |①---|
⑥④口口 |②---|
①②⑤口 |③-④-|
②①口③ |⑤-⑥-|
52
口②④③ |①---|
⑥⑤①口 |②---|
口口④③ |③-④-|
⑥⑤口口 |⑤-⑥-|
53
③口③② |①---|
④口④① |②---|
口⑤口⑤ |③-④-|
口⑥口⑥ |⑤-⑥-|
54
②口②口 |①---|
②②②① |--②-|
②④②口 |--③-|
口口口③ |--④-|
55
③①③① |①---|
⑤口口⑤ |②-③-|
⑤口口⑤ |--④-|
②④②④ |--⑤-|
56
口口口② |----|
口口①口 |----|
口①口口 |①---|
②口口口 |②---|
57
①②口口 |①---|
②①口口 |②---|
③口口⑥ |③-④-|
口④⑤口 |⑤-⑥-|
58
①②口口 |①---|
口口口口 |②---|
口口口口
口口口口

④口口④
口口口口
口口口口 |③---|
③口口③ |④---|
59
⑥⑥⑥⑥ |①---|
口⑤⑤口 |②---|
④①①④ |③-④-|
③②②③ |⑤-⑥-|
60
④口口口 |----|
口口③口 |①---|
口②口口 |②---|
口口①口 |③-④-|
61
口①④口 |①-②-|
口④⑦④ |③-④-|
⑤③②⑦ |--⑤-|
口⑥⑦口 |⑥-⑦-|
62
③口③口 |--①-|
口③⑤④ |②-③-|
口②①口 |--④-|
⑥⑥⑥⑥ |⑤-⑥-|

不確定度: 0

最終更新:2014年12月11日 22:36