Everybody Say EDOGAWA
EDOist

BASIC

Level: 2
BPM: 142
Notes: 156

1
口口口口 |----|
口口口口 |----|
口口口口 |----|
口口口口 |----|
2
口口口口 |①---|
口口口口 |----|
口①①口 |----|
口口口口 |----|
3
口口口口 |①---|
口口口口 |----|
口口口口 |----|
口①①口 |----|
4
口口口口 |①---|
口口口口 |----|
①②口口 |②---|
口口口口 |----|
5
口口口口 |①---|
口①①口 |----|
口口口口 |----|
口口口口 |----|
6
口口口口 |----|
口口口口 |----|
口口口口 |----|
口口口口 |----|
7
口口口口 |----|
口口口口 |----|
口口口口 |----|
口口口口 |----|
8
口口口口 |①---|
口口口口 |----|
①②口口 |②---|
口口口口 |----|
9
口口口口 |①---|
口①①口 |----|
口口口口 |----|
口口口口 |----|
10
口口口口 |①---|
①②口口 |----|
口口口口 |②---|
口口口口 |----|
11
口口口口 |①---|
口口①② |----|
口口口口 |②---|
口口口口 |----|
12
口口口口 |①---|
口口口口 |----|
口①①口 |----|
口口口口 |----|
13
口口口口 |①---|
口①①口 |----|
口口口口 |----|
口口口口 |----|
14
口口口口 |①---|
口口口口 |----|
口①①口 |----|
口口口口 |----|
15
口口口口 |①---|
口口口口 |----|
口口口口 |----|
口①①口 |----|
16
口口口口 |①---|
口口口口 |----|
口①①口 |----|
口口口口 |----|
17
口口口口 |①---|
口①①口 |----|
口口口口 |----|
口口口口 |----|
18
口口口口 |①---|
①口口① |----|
口口口口 |----|
口口口口 |----|
19
口口口口 |----|
口口口口 |----|
口口口口 |----|
口口口口 |----|
20
口口口口 |①---|
口①口口 |----|
口②口口 |②---|
口口口口 |----|
21
口口口口 |①---|
口口口口 |----|
口②②口 |②---|
口①口口 |----|
22
口口口口 |①---|
口口①口 |----|
口口②口 |②---|
口口口口 |----|
23
口口口口 |①---|
口口口口 |----|
口②②口 |②---|
口口①口 |----|
24
口口口口 |①---|
①③②口 |②---|
口口口口 |③---|
口口口口 |----|
25
口口口口 |①---|
口口口口 |②---|
口①③② |③---|
口口口口 |----|
26
口口口口 |①---|
口口口口 |②---|
口口口口 |③---|
①③②口 |----|
27
口口口口 |①---|
口口③④ |②---|
①②口口 |③---|
口口口口 |④---|
28
口口口口 |①---|
口口口口 |②---|
口口口口 |③---|
口①②③ |----|
29
口口口口 |①---|
口口口口 |②---|
口①②③ |③---|
口口口口 |----|
30
口口口口 |①---|
口①②③ |②---|
口口口口 |③---|
口口口口 |----|
31
口①②③ |①---|
口口口口 |②---|
口口口口 |③---|
口口口口 |----|
32
口口口口 |①---|
①①口口 |----|
口口口口 |②---|
②②口口 |----|
33
口口口口 |①---|
口口①① |----|
口口口口 |②---|
口口②② |----|
34
②口口② |①---|
口③③口 |--②-|
①口口① |----|
口口口口 |③---|
35
口口口口 |----|
口口口口 |----|
口①②口 |①---|
口口口口 |②---|
36
①②③口 |①---|
口口口口 |②---|
口口口口 |③---|
口口口口 |----|
37
口口口口 |①---|
②口口② |----|
口①①口 |②---|
口口口口 |----|
38
口口口口 |①---|
口口口口 |②---|
①②③口 |③---|
口口口口 |----|
39
口口口口 |①---|
口口口口 |----|
②口口② |②---|
口①①口 |----|
40
口口口口 |①---|
①②③口 |②---|
口口口口 |③---|
口口口口 |----|
41
口口口口 |①---|
②口口② |----|
口①①口 |②---|
口口口口 |----|
42
口①口口 |①---|
口口口口 |----|
口②口口 |②---|
口口口口 |----|
43
口口①口 |①---|
口口口口 |----|
口口②口 |②---|
口口口口 |----|
44
口口口口 |①---|
①口口① |----|
口口口口 |----|
口口口口 |----|
45
①②③④ |①---|
口口口口 |②---|
口口口口 |③---|
口口口口 |④---|
46
口口口口 |①---|
③④②③ |②---|
口①①口 |③---|
口口口口 |④---|
47
口口口口 |①---|
口口口口 |②---|
①②③④ |③---|
口口口口 |④---|
48
口口口口 |①---|
口口口口 |②---|
③④②③ |③---|
口①①口 |④---|
49
口口口口 |①---|
①②③④ |②---|
口口口口 |③---|
口口口口 |④---|
50
口口口口 |①---|
③④②③ |②---|
口①①口 |③---|
口口口口 |④---|
51
口口口口 |①---|
口口口口 |----|
①口口① |----|
口口口口 |----|
52
口口口口 |①---|
口①①口 |----|
口②②口 |②---|
口③③口 |③---|
53
口口口口 |①---|
口口口口 |----|
①口口① |----|
口口口口 |----|
54
①①口口 |①---|
③③③③ |--②-|
口口②② |----|
口口口口 |③---|

不確定度: 0

最終更新:2014年12月11日 22:33