Nature (jubeat version)
Mutsuhiko Izumi

BASIC

Level: 5
BPM: 230
Notes: 411

BPM: 230
1
口口口口 |----|
口口口口 |----|
口口口口 |----|
口口口口 |----|
2
口口口口 |①---|
口口口口 |②---|
③口④④ |③---|
①口②② |④---|
3
③口④④ |①---|
①口②② |②---|
口口口口 |③---|
口口口口 |④---|
4
口口口口 |①---|
口口口口 |②---|
口③④④ |③---|
口①②② |④---|
5
口③④④ |①---|
口①②② |②---|
口口口口 |③---|
口口口口 |④---|
6
口口口口 |①---|
口口口口 |②---|
④④口③ |③---|
②②口① |④---|
7
④④口③ |①---|
②②口① |②---|
口口口口 |③---|
口口口口 |④---|
8
口口口口 |①---|
口口口口 |②---|
④④③口 |③---|
②②①口 |④---|
9
④④③口 |①---|
②②①口 |②---|
口口口口 |③---|
口口口口 |④---|
10
口口口口 |①---|
口口口口 |②---|
③口④② |③---|
①口②④ |④---|
11
③口④② |①---|
①口②④ |②---|
口口口口 |③---|
口口口口 |④---|
12
口口口口 |①---|
口口口口 |②---|
口③④② |③---|
口①②④ |④---|
13
口③④② |①---|
口①②④ |②---|
口口口口 |③---|
口口口口 |④---|
14
口口口口 |①---|
口口口口 |②---|
②④口③ |③---|
④②口① |④---|
15
②④口③ |①---|
④②口① |②---|
口口口口 |③---|
口口口口 |④---|
16
口口口口 |①---|
口口口口 |②---|
②④③口 |③---|
④②①口 |④---|
17
②④③口 |①---|
④②①口 |②---|
口口口口 |③---|
口口口口 |④---|
18
③口口③ |①---|
口口口口 |--②-|
③②②③ |----|
口①①口 |③---|
19
口口口口 |----|
口口口口 |----|
口口口口 |①---|
口②①口 |②---|
20
口②②口 |①---|
①口口① |--②-|
口②②口 |----|
口口口口 |----|
21
口口口口 |----|
口口口口 |----|
口口口口 |----|
口口口口 |----|
22
③口口③ |①---|
口口口口 |--②-|
③②②③ |----|
口①①口 |③---|
23
口口口口 |----|
口口口口 |----|
口口口口 |①---|
口②①口 |②---|
24
②口口② |①---|
口①①口 |--②-|
②口口② |----|
口口口口 |----|
25
口口口口 |----|
口口口口 |----|
口②口口 |①---|
①口口口 |②---|
26
口口①① |①---|
口口口口 |----|
口口口口 |----|
口口②② |②---|
27
口口口口 |----|
口口②口 |----|
口口口① |①---|
口口口口 |②---|
28
①①口口 |①---|
口口口口 |----|
口口口口 |----|
②②口口 |②---|
29
口口口口 |----|
口口口口 |----|
口口口口 |----|
口口口口 |----|
30
口口口口 |①---|
口口口口 |----|
口②②口 |②---|
口①①口 |----|
31
口②②口 |①---|
口①①口 |----|
口口口口 |②---|
口口口口 |----|
32
①口口① |①---|
口口②口 |----|
①口口① |----|
口口口口 |②---|
33
口口口口 |①---|
口口口口 |----|
口①口口 |----|
口口口口 |----|
34
③口口③ |①---|
口口口口 |--②-|
③②②③ |----|
口①①口 |③---|
35
口口口口 |----|
口口口口 |----|
口口口口 |①---|
口②①口 |②---|
36
口②②口 |①---|
①口口① |--②-|
口②②口 |----|
口口口口 |----|
37
口口口口 |----|
口口口口 |----|
口口口口 |----|
口口口口 |----|
38
③口口③ |①---|
口口口口 |--②-|
③②②③ |----|
口①①口 |③---|
39
口口口口 |----|
口口口口 |----|
口口口口 |①---|
口②①口 |②---|
40
②口口② |①---|
口①①口 |--②-|
②口口② |----|
口口口口 |----|
41
口口口口 |----|
口口口口 |----|
口②口口 |①---|
①口口口 |②---|
42
口口①① |①---|
口口口口 |----|
口口口口 |----|
口口②② |②---|
43
口口口口 |----|
口口②口 |----|
口口口① |①---|
口口口口 |②---|
44
①①口口 |①---|
口口口口 |----|
口口口口 |----|
②②口口 |②---|
45
口口口口 |----|
口口口口 |----|
口口口口 |----|
口口口口 |----|
46
口口口口 |①---|
口口口口 |----|
口②②口 |②---|
口①①口 |----|
47
口②②口 |①---|
口①①口 |----|
口口口口 |②---|
口口口口 |----|
48
①口口① |①---|
口口口口 |----|
①口口① |----|
口口口口 |----|
49
口口口口 |----|
口口口口 |----|
口口口口 |----|
口口口口 |----|
50
口口口口 |①---|
口①①口 |----|
口①①口 |----|
口口口口 |----|
51
口口口口 |①---|
①口口① |----|
①口口① |----|
口②②口 |②---|
52
口①①口 |①---|
口口口口 |----|
口②②口 |②---|
口口口口 |----|
53
③口口④ |①---|
③口口④ |②---|
口口口口 |③---|
口①②口 |④---|
54
口口口口 |①---|
口①①口 |----|
口①①口 |----|
口口口口 |----|
55
口口口口 |①---|
①口口① |----|
①口口① |----|
口②②口 |②---|
56
口①①口 |①---|
口口口口 |----|
口②②口 |②---|
口口口口 |----|
57
③口口④ |①---|
③口口④ |②---|
口口口口 |③---|
口①②口 |④---|
58
口①口口 |①---|
口②口口 |②---|
③口口口 |③---|
④口口口 |④---|
59
口口①口 |①---|
口口②口 |②---|
口口口③ |③---|
口口口④ |④---|
60
①口口口 |①---|
②口口口 |②---|
口③口口 |③---|
口④口口 |④---|
61
口口口口 |①---|
口口口③ |②---|
口口②口 |③---|
口口①口 |----|
62
口①口口 |①---|
口口口口 |----|
口口口口 |----|
口口口口 |----|
63
口口口口 |----|
口口①口 |①---|
口②口口 |②---|
口口③口 |③---|
64
④口口口 |①---|
口③口口 |②---|
口口②口 |③---|
口口口① |④---|
65
口口口① |①---|
口口口口 |----|
口口口口 |----|
口口口口 |----|
66
口②①口 |①---|
③口口口 |②---|
口④口口 |③---|
口口口口 |④---|
67
口口口口 |①---|
口口口口 |②---|
口口③② |③---|
口④①口 |④---|
68
口③④口 |①---|
口②口口 |②---|
①口口口 |③---|
口口口口 |④---|
69
口口口① |①---|
口口口口 |----|
口口口口 |----|
口口口口 |----|
70
口口口口 |①---|
口口口口 |②---|
④口口① |③---|
口③②口 |④---|
71
②口口口 |①---|
③①口口 |②---|
口④口口 |③---|
口口口口 |④---|
72
口口口口 |①---|
口口口口 |②---|
口口①③ |③---|
口口口② |----|
73
口口口口 |①---|
口①①口 |----|
口口口口 |----|
口口口口 |----|
74
口口口口 |①---|
口④口口 |②---|
口口③口 |③---|
①②口口 |④---|
75
口③④口 |①---|
口口②口 |②---|
口①口口 |③---|
口口口口 |④---|
76
口口口① |①---|
口口口② |②---|
口口④③ |③---|
口口口口 |④---|
77
口口口口 |①---|
口口口口 |②---|
④③口口 |③---|
口①②口 |④---|
78
口②口口 |①---|
①口口口 |----|
口口口口 |②---|
口口口口 |----|
79
口口口口 |①---|
口口①口 |②---|
口②口口 |③---|
④口③口 |④---|
80
口口③口 |①---|
口②口④ |②---|
①口口口 |③---|
口口口口 |④---|
81
口口口① |①---|
口口②口 |②---|
口③口口 |③---|
④口口口 |④---|
82
①②③④ |①---|
口口口口 |②---|
口口口口 |③---|
口口口口 |④---|
83
口口口口 |①---|
①②③④ |②---|
口口口口 |③---|
口口口口 |④---|
84
口口口口 |①---|
口口口口 |②---|
①②③④ |③---|
口口口口 |④---|
85
口口口口 |①---|
④②②④ |②---|
口口口口 |③---|
③①①③ |④---|
86
④③②① |①---|
口口口口 |②---|
口口口口 |③---|
口口口口 |④---|
87
口口口口 |①---|
④③②① |②---|
口口口口 |③---|
口口口口 |④---|
88
口口口口 |①---|
口口口口 |②---|
④③②① |③---|
口口口口 |④---|
89
③口口③ |①---|
口口口口 |②---|
口口口口 |③---|
④②①④ |④---|
90
口①③口 |①---|
口④②口 |②---|
口口口口 |③---|
口口口口 |④---|
91
口口口口 |①---|
①口口③ |②---|
④口口② |③---|
口口口口 |④---|
92
①口口③ |①---|
口口口口 |②---|
口口口口 |③---|
④口口② |④---|
93
口①③口 |①---|
口口口口 |②---|
口口口口 |③---|
口④②口 |④---|
94
口口口口 |①---|
②④口口 |②---|
①③口口 |③---|
口口口口 |④---|
95
口口口口 |①---|
口口②④ |②---|
口口①③ |③---|
口口口口 |④---|
96
①口口口 |①---|
口口口口 |----|
口口口口 |----|
口口口口 |----|
97
口①口口 |①---|
口口口口 |----|
口口口口 |----|
口口口口 |----|
98
口口口口 |①---|
口口③口 |--②-|
口②口口 |----|
口口①口 |③---|
99
口口口口 |----|
口②口口 |----|
①口口口 |①---|
口口口口 |②---|
100
口口口① |①---|
口口口口 |--②-|
口口②口 |----|
口口口口 |----|
101
口口口口 |----|
口口口口 |----|
口口口口 |----|
口口口口 |----|
102
口口口口 |①---|
口口③口 |--②-|
口②口口 |----|
口口①口 |③---|
103
口口口口 |----|
口口口口 |----|
口②口口 |①---|
①口口口 |②---|
104
②口口口 |①---|
口口①口 |--②-|
口口口口 |----|
口口口口 |----|

BPM: 170
105
口口口口 |----|
口口口口 |----|
口口口口 |----|
口口口口 |----|

BPM: 180
106
口口口口 |①---|
口口口口
口口口口
口口口①

BPM: 170

口口口口
口口口口 |--②-|
口②口口
口口口口

BPM: 150

口口口口
③口口口
口口口口 |----|
口口口口 |③---|

不確定度: 0

最終更新:2014年12月11日 22:32