Everybody Say EDOGAWA
EDOist

EXTREME

Level: 8
BPM: 142
Notes: 533

1
口口口口 |----|
口口口口 |----|
口口口口 |----|
口口口口 |----|
2
②②②② |①-②-|
③④口口 |--③④|
①①①①
口口口口

口口口口
口口⑤口
⑥口⑦口 |⑤--⑥|
口口口口 |--⑦-|
3
①①口口 |①---|
①③③口 |②---|
口③③② |③---|
口口②② |----|
4
②口口① |①---|
口口口口 |②---|
口口口口
①口口②

⑤口⑤口
口④口③
③口④口 |③-④-|
口⑤口⑤ |--⑤-|
5
口⑤⑥口 |--①-|
口⑤⑥口 |②-③-|
③①②口 |④-⑤-|
⑦口②④ |⑥-⑦-|
6
口口⑦③ |①-②-|
口口⑦③ |③-④-|
⑥②口口 |⑤-⑥-|
⑧④①⑤ |⑦-⑧-|
7
口⑥⑦口 |①-②-|
口⑥⑦口 |③-④-|
④口③① |⑤-⑥-|
口②③⑤ |⑦---|
8
②口口① |①---|
口口口口 |②---|
口口口口
①口口②

⑤口⑤口
口④口③
③口④口 |③-④-|
口⑤口⑤ |--⑤-|
9
口口口口 |----|
③口口口 |----|
③口口口 |--①-|
①①②② |②-③-|
10
②口口口 |①---|
口②口① |--②-|
口口口①
口口口口

口口④口
口口口④
口口口口 |③---|
口口③③ |--④-|
11
②口口② |①---|
口口口口 |--②-|
口口口口
①①口口

口口口口
⑥⑥③口
④口口③ |③-④-|
口④⑤⑤ |⑤-⑥-|
12
口②口② |①-②-|
口口口口 |--③-|
口①①口
口③③口

④⑥④⑥
口口口口
口⑤⑤口 |④---|
口口口口 |⑤-⑥-|
13
口口口口 |----|
口口口口 |--①-|
③口②⑦ |②③④⑤|
⑤①④⑥ |⑥-⑦-|
14
口②②② |①-②-|
①①口口 |--③-|
口口口口
口口③③

口口口口
口⑥⑥⑥
④④④口 |④---|
⑤⑤口口 |⑤-⑥-|
15
口③口口 |--①②|
⑩口口口 |③-④⑤|
⑥①⑦② |⑥⑦⑧⑨|
⑧④⑨⑤ |⑩---|
16
②②②② |①-②-|
口口①① |--③-|
口口口口
③③口口

⑥⑥⑥⑥
口口口口
④④④④ |④---|
口口⑤⑤ |⑤-⑥-|
17
⑥⑥⑦⑦ |----|
口⑧⑧口 |①-②③|
①④口⑤ |④⑤⑥-|
口②口③ |⑦-⑧-|
18
口口口口 |①---|
①口口① |----|
口口口口 |----|
口口口口 |----|
19
口口口口 |----|
口口口口 |----|
口口口口 |----|
口口口口 |----|
20
⑤口口⑤ |①-②-|
①①④④ |③-④-|
⑤⑥⑦⑤ |⑤---|
③③②② |⑥-⑦-|
21
口口口口 |--①-|
②口③① |②-③-|
口④口口 |④---|
口口口口 |----|
22
口口口⑤ |①-②-|
口④①口 |③-④-|
口⑧⑦⑥ |⑤-⑥-|
口②③口 |⑦-⑧-|
23
口③③口 |--①-|
②口口① |②-③-|
口口口口 |----|
口口口口 |----|
24
口口口口 |①-②-|
④⑥口⑤ |③-④-|
口③③② |⑤-⑥-|
①⑦⑦⑧ |⑦-⑧-|
25
口口口口 |①-②-|
④⑥口⑤ |③-④-|
口③③② |⑤-⑥-|
①⑦⑦⑧ |⑦-⑧-|
26
口口口口 |①-②-|
④口口⑤ |③-④-|
⑥③③② |⑤-⑥-|
①⑦⑦⑧ |⑦-⑧-|
27
①①①口 |-①--|
口②口口 |②---|
口②口口 |----|
口口口口 |----|
28
口口口口 |①---|
③③①口 |②-③-|
口口口口
①①③②

④④口口
口口⑦⑥
口口⑤口 |④-⑤-|
口口口口 |⑥-⑦-|
29
⑤⑤②口 |①-②-|
④④口口 |③-④-|
口口④③ |⑤---|
①①口口 |----|
30
口口口口 |①---|
③③口① |②-③-|
口口口口
①①②③

④④口口
口口⑦⑥
口口⑤口 |④-⑤-|
口口口口 |⑥-⑦-|
31
⑤⑤口② |①-②-|
④④口口 |③-④-|
口口③④ |⑤---|
①①口口 |----|
32
口口口口 |①-②-|
口③口③ |--③-|
①口①口
口口②②

④口④口
口口口口
⑤⑤⑥⑥ |④-⑤-|
口口口口 |⑥---|
33
口口口口 |①-②-|
①③①③ |--③-|
口口口口
②②口口

④⑦④⑤
口口⑥口
口口口口 |④-⑤-|
口口口口 |⑥-⑦-|
34
口口口口 |①-②-|
②①③② |--③-|
②③①②
口口口口

口④④⑤
⑥⑥口⑤
⑤口⑥⑥ |④---|
⑤④④口 |⑤-⑥-|
35
口口口口 |----|
②口口② |----|
口口口口 |①---|
口①①口 |②---|
36
②口口① |①---|
口口口口 |②---|
口口口口
①口口②

口口口口
口④口③
③口④口 |③-④-|
口口⑤⑤ |--⑤-|
37
①④④④ |--①②|
②口④口 |③-④-|
③④④④ |--⑤-|
口⑤⑥口 |⑥---|
38
②口口① |①---|
口口口口 |②---|
口口口口
①口口②

口口口口
口口④④
③③口口 |③-④-|
⑤口⑤口 |--⑤-|
39
②口②口 |--①-|
④①口④ |②-③-|
口③口口 |④-⑤-|
口⑤⑥口 |⑥---|
40
②口口① |①---|
口口口口 |②---|
口口口口
①口口②

口口口口
口④③口
口③④口 |③-④-|
口口⑤⑤ |--⑤-|
41
①④④④ |--①②|
②口④口 |③-④-|
③④④④
口口口口

口口口口
⑦口口口
⑦口口口 |--⑤-|
⑤⑤⑥⑥ |⑥-⑦-|
42
③口口口 |①---|
口③口① |②-③-|
口②口①
口口口口

口口⑥口
口口口⑥
口口⑤口 |④---|
口口④④ |⑤-⑥-|
43
③③口口 |①---|
口口口口 |②-③-|
口②口口
①①口口

口口口口
⑦⑦④口
⑤口口④ |④-⑤-|
口⑤⑥⑥ |⑥-⑦-|
44
口口②④ |①-②-|
口口口③ |③-④-|
口①①口 |----|
口口口口 |----|
45
②口口① |①---|
口口口口 |②---|
口口口口
①口口②

口口口口
口④口③
③口④口 |③-④-|
⑤口⑥⑥ |⑤-⑥-|
46
①④④④ |--①②|
②口④口 |③-④-|
③④④④ |--⑤-|
口⑤⑥口 |⑥---|
47
②口口① |①---|
口口口口 |②---|
口口口口
①口口②

口口口口
口口④④
③③口口 |③-④-|
⑤⑥口⑥ |⑤-⑥-|
48
②口②口 |--①-|
④①口④ |②-③-|
口③口口 |④-⑤-|
口⑤⑥口 |⑥---|
49
②口口① |①---|
口口口口 |②---|
口口口口
①口口②

口口口口
口④③口
口③④口 |③-④-|
⑤口⑥⑥ |⑤-⑥-|
50
①④④④ |--①②|
②口④口 |③-④-|
③④④④
口口口口

口口口口
⑦口口口
⑦口口口 |--⑤-|
⑤⑤⑥⑥ |⑥-⑦-|
51
口①②口 |①---|
口口①② |----|
口口口① |----|
口口口口 |--②-|
52
③③口口 |①---|
口口口口 |②-③-|
口口②口
①①口口

口口口口
⑦⑦④口
⑤口口④ |④-⑤-|
口⑤⑥⑥ |⑥-⑦-|
53
口口口口 |①---|
口口口口 |----|
口①①口 |----|
口口口口 |----|
54
口口口口 |①-②-|
②口②口 |--③-|
口口口口
①①③③

⑤⑥⑥⑥
⑤④⑥④
⑤⑥⑥⑥ |④---|
口口口口 |⑤-⑥-|

不確定度: 0

最終更新:2014年12月11日 22:32