My HERO
chairmans

BASIC

Level: 3
BPM: 140
Notes: 191

1
口口口口 |----|
口口口口 |----|
口口口口 |----|
口口口口 |----|
2
口口口口 |①---|
口②口口 |----|
①口口口 |②---|
口口口口 |----|
3
口口口口 |①---|
口口口② |----|
口口①口 |②---|
口口口口 |----|
4
口口口口 |①---|
口②口口 |----|
口口①口 |②---|
口口口口 |----|
5
口口口口 |①---|
口②口口 |----|
①口口口 |②---|
口口口口 |----|
6
口口口口 |①---|
口口口口 |②---|
④③②① |③---|
口口口口 |④---|
7
口口口口 |①---|
口①②口 |②---|
口③④口 |③---|
口口口口 |④---|
8
口口口口 |①---|
④③②① |②---|
口口口口 |③---|
口口口口 |④---|
9
口口口口 |①---|
口②②口 |----|
口口口口 |②---|
口①①口 |----|
10
①口口① |①---|
口口口口 |----|
口口口口 |----|
口口口口 |----|
11
口口口口 |①---|
①口口① |----|
口口口口 |----|
口口口口 |----|
12
口口口口 |①---|
口①口口 |----|
口②口口 |②---|
口口口口 |----|
13
口口口口 |①---|
口口口口 |----|
口口口口 |----|
口①口口 |----|
14
①口口① |①---|
口口口口 |----|
口口口口 |----|
口口口口 |----|
15
口口口口 |①---|
①口口① |----|
口口口口 |----|
口口口口 |----|
16
口口口口 |①---|
口口①口 |----|
口口②口 |②---|
口口口口 |----|
17
口口口口 |①---|
口口口口 |----|
口口口口 |----|
口口①口 |----|
18
①口口① |①---|
口口口口 |----|
口②③口 |②---|
口口口口 |③---|
19
口口口口 |①---|
口口口口 |----|
口②口① |②---|
口口口口 |----|
20
口口口口 |①---|
口口口口 |②---|
口口口口 |③---|
①②③④ |④---|
21
口口口口 |①---|
口②②口 |----|
口①①口 |②---|
口口口口 |----|
22
①口口① |①---|
口口口口 |----|
口②③口 |②---|
口口口口 |③---|
23
口口口口 |①---|
口口口口 |----|
口②口① |②---|
口口口口 |----|
24
口口口口 |①---|
口口口口 |②---|
口口口口 |③---|
①②③④ |④---|
25
口口口口 |①---|
口口口口 |----|
②①①② |②---|
口口口口 |----|
26
口口口口 |①---|
口①①④ |②---|
②③口口 |③---|
口口口口 |④---|
27
口口口口 |①---|
口②①口 |②---|
口口口口 |----|
口口口口 |----|
28
口口口口 |①---|
口口②② |----|
①①口口 |②---|
口口口口 |----|
29
口①①口 |①---|
口口口口 |----|
口②②口 |②---|
口口口口 |----|
30
口口口口 |①---|
口①①④ |②---|
②③口口 |③---|
口口口口 |④---|
31
口口口口 |①---|
口②①口 |②---|
口口口口
口口口口

口口口口
口口⑤口
口④口口 |--③-|
口口③口 |④-⑤-|
32
口③口口 |----|
口口②口 |----|
口①口口 |--①-|
口口口口 |②-③-|
33
口口口口 |----|
口②口口 |----|
口口口口 |①---|
口①口口 |②---|
34
口口口口 |①---|
口口口口 |----|
口口①口
口口口口

口口口口
②②口口
口口③③ |--②-|
④④口口 |③-④-|
35
口口口口 |----|
③口口③ |----|
口②口口 |①-②-|
口口①口 |--③-|
36
口①②口 |----|
口③口口 |①---|
口口口口 |②---|
口口口口 |③---|
37
口口口口 |①---|
口口①口 |②---|
②口口②
口口口口

口口口口
口口口口
③口口口 |----|
口口口口 |--③-|
38
③口口③ |----|
口②②口 |①---|
口口①口 |②---|
口口口口 |--③-|
39
口口口口 |----|
④口口④ |①---|
①③口① |②-③-|
口口②口 |--④-|
40
口①②口 |----|
口③口口 |①---|
口口口口 |②---|
口口口口 |③---|
41
口口口口 |①---|
③口①口 |②---|
②口口② |----|
口口口口 |--③-|
42
口口口口 |--①-|
⑥口①⑥ |②-③-|
口②③口 |④---|
④④⑤⑤ |⑤-⑥-|
43
口口口口 |----|
③口口③ |----|
口②口口 |①-②-|
口口①口 |--③-|
44
口①②口 |--①-|
口③④口 |②-③-|
口口口口 |④---|
口⑤⑥口 |⑤-⑥-|
45
口口口口 |①-②-|
口口口口 |③---|
③①②③
口口口口

口口口口
口口口口
④口口口 |----|
口口口口 |--④-|
46
口口口口 |--①-|
口②③口 |②-③-|
口口①口
口口口口

口口口口
口口口口
口⑥⑤口 |④---|
口④口口 |⑤-⑥-|
47
口口口口 |--①-|
④口口④ |----|
口③口口 |②-③-|
①口②① |--④-|
48
口①②口 |--①-|
口③④口 |②-③-|
口口口口 |④---|
口⑤⑥口 |⑤-⑥-|
49
口口口口 |①-②-|
④口口口 |③---|
③①②③ |----|
口口口口 |--④-|
50
口口口口 |--①-|
⑥口①⑥ |②-③-|
口②③口 |④---|
④④⑤⑤ |⑤-⑥-|
51
口口口口 |----|
口口口口 |----|
①口口口 |----|
口口口口 |--①-|
52
口口口口 |--①-|
口②③口 |②-③-|
口口①口
口口口口

⑥口口⑥
口口口口
④⑤⑤④ |④---|
口口口口 |⑤-⑥-|

不確定度: 0

最終更新:2014年12月11日 22:30