My HERO
chairmans

ADVANCED

Level: 6
BPM: 140
Notes: 368

1
口口口口 |----|
口口口口 |----|
口口口口 |----|
口口口口 |----|
2
⑤③③⑤ |①-②-|
口①①口 |--③-|
口②②口 |--④-|
口④④口 |--⑤-|
3
口口口口 |--①-|
②口口② |--②-|
①③③① |③---|
④口口④ |④---|
4
口①口④ |--①-|
③口②口 |--②-|
口①口④ |--③-|
③口②口 |--④-|
5
口口口口 |--①-|
③口口③ |②---|
口①①口 |--③-|
③②②③ |----|
6
⑤③③⑤ |①-②-|
口①①口 |--③-|
口②②口 |--④-|
口④④口 |--⑤-|
7
口口口口 |--①-|
②口口② |--②-|
①③③① |③---|
④口口④ |④---|
8
口①②口 |--①-|
口③③口 |--②-|
口①②口 |--③-|
④口④口 |--④-|
9
③口口③ |--①-|
②口②口 |--②-|
口①口① |--③-|
口口口口 |----|
10
②③口④ |①---|
口口口口 |----|
①口口① |②-③-|
①口口① |--④-|
11
口口口口 |----|
口②口口 |--①-|
①口口③ |②---|
口口口口 |③---|
12
⑤⑤口口 |①---|
④④①① |②---|
②②③③ |③---|
口口口口 |④-⑤-|
13
口③口口 |----|
口口②口 |--①-|
口①口口 |②---|
口口口口 |③---|
14
口口口③ |----|
①口②口 |①---|
④口口④ |②-③-|
④口口④ |--④-|
15
③口①② |----|
口口口口 |--①-|
口口口口 |②---|
口口口口 |③---|
16
口口口口 |①---|
③①④② |②---|
口⑤⑤口 |③---|
②④①③ |④-⑤-|
17
口口口口 |----|
口口口口 |----|
口口口口 |----|
口口口口 |----|
18
③④口⑤ |①---|
口②口口 |②---|
①口②① |③-④-|
①口口① |--⑤-|
19
口口口口 |----|
口②口口 |--①-|
①口口③ |②---|
口口口口 |③---|
20
口口口口 |①---|
②②①① |②---|
口口口口
口口口口

口口口口
⑤⑤口口
④④③③ |③---|
口口口口 |④-⑤-|
21
口③口口 |----|
口口②口 |--①-|
口①口口 |②---|
口口口口 |③---|
22
口口口③ |----|
①口②口 |①---|
④口口④ |②-③-|
④口口④ |--④-|
23
③口①② |----|
口口口口 |--①-|
口口口口 |②---|
口口口口 |③---|
24
口口口口 |①---|
③①④② |②---|
口⑤⑤口 |③---|
②④①③ |④-⑤-|
25
④口④口 |----|
口④口口 |--①-|
②③③② |②-③-|
①口口① |--④-|
26
口口口口 |--①-|
口口口口 |②-③-|
②③口①
口口①口

⑤口⑤口
口⑤口口
口口④⑥ |④---|
口口⑥口 |⑤-⑥-|
27
口⑥口口 |①-②-|
口⑤④口 |③---|
①②③口 |--④-|
口口口口 |⑤-⑥-|
28
口口口④ |----|
口口③② |----|
口口①口 |①-②-|
口口口口 |③-④-|
29
③口③口 |----|
口③口口 |----|
口②②口 |①-②-|
口①①口 |--③-|
30
口口口口 |--①-|
口口口口 |②-③-|
②③口①
口口①口

⑤口⑤口
口⑤口口
口口④⑥ |④---|
口口⑥口 |⑤-⑥-|
31
口口口口 |①-②-|
口口口口 |③---|
①②③口
口口口口

口口口口
口⑤口口
④口⑥口 |--④-|
口口口口 |⑤-⑥-|
32
口口口口 |----|
口③口① |----|
口口②口 |--①-|
口口口口 |②-③-|
33
①口口① |----|
②口口② |----|
口口口口 |①---|
口口口口 |②---|
34
口口口口 |①---|
③④④③ |----|
①②②① |--②-|
口口口口 |③-④-|
35
①口口① |①---|
口口口口 |②---|
口口口口
②口口②

口口⑤⑤
口④④口
口③③口 |③-④-|
⑤⑤口口 |--⑤-|
36
口口口口 |--①-|
①⑤⑥② |②-③-|
③口④④ |④---|
口口口口 |⑤-⑥-|
37
口口口口 |①-②-|
⑦口口⑥ |③---|
口①②⑤ |④-⑤-|
③③④口 |⑥-⑦-|
38
④口口口 |--①-|
口口口④ |②-③-|
④②⑤口 |④---|
①③⑥④ |⑤-⑥-|
39
口口口口 |--①-|
口口口口 |②---|
口口口①
口口口②

⑤⑤口口
口④④口
口③③口 |③-④-|
口口⑤⑤ |--⑤-|
40
口口口口 |--①-|
①⑤⑥② |②-③-|
③口④④ |④---|
口口口口 |⑤-⑥-|
41
口⑦口口 |①-②-|
口口口⑥ |③---|
口①②⑤ |④-⑤-|
③③④口 |⑥-⑦-|
42
口口⑥⑥ |--①-|
②口口口 |②-③-|
③①⑤⑤ |④---|
④口口口 |⑤-⑥-|
43
口口③③ |----|
口②②口 |----|
口①①口 |①-②-|
③③口口 |--③-|
44
口口口口 |--①-|
②⑥⑤① |②-③-|
④④口③ |④---|
口口口口 |⑤-⑥-|
45
口口口⑦ |①-②-|
⑥口口口 |③---|
⑤②①口 |④-⑤-|
口④③③ |⑥-⑦-|
46
④口口口 |--①-|
口⑤②④ |②-③-|
④口③① |④---|
口⑥口④ |⑤-⑥-|
47
口口④④ |--①-|
口③③口 |----|
①②②口 |②-③-|
④④口口 |--④-|
48
口口口口 |--①-|
②⑥⑤① |②-③-|
④④口③ |④---|
口口口口 |⑤-⑥-|
49
口口⑦口 |①-②-|
⑥口口口 |③---|
⑤②①口 |④-⑤-|
口④③③ |⑥-⑦-|
50
⑥⑥口口 |--①-|
口口口② |②-③-|
⑤⑤①③ |④---|
口口口④ |⑤-⑥-|
51
口④口口 |----|
口口口口 |①---|
口口③口 |②-③-|
口②口① |--④-|
52
口口口口 |--①-|
②口口口 |②-③-|
③①口口
口口口口

口口口口
⑥⑥⑥⑥
口口⑤⑤ |④---|
④口口口 |⑤-⑥-|

不確定度: 0

最終更新:2014年12月11日 22:29