My HERO
chairmans

EXTREME

Level: 7
BPM: 140
Notes: 457

1
口口口口 |----|
口口口口 |----|
口口口口 |----|
口口口口 |----|
2
③口口④ |①-②-|
⑤①②⑤ |--③-|
④口口③ |--④-|
口②①口 |--⑤-|
3
口③②口 |--①-|
④②③④ |--②-|
④口口④ |③---|
口①①口 |④---|
4
口②④口 |--①-|
②③①④ |--②-|
④①③② |--③-|
口④②口 |--④-|
5
①口口② |--①-|
③口③④ |②---|
口口口④ |--③-|
②⑤⑥① |④-⑤⑥|
6
③①②④ |①-②-|
⑤口口⑤ |--③-|
④②①③ |--④-|
口口口口 |--⑤-|
7
口③②口 |--①-|
④②③④ |--②-|
④口口④ |③---|
口①①口 |④---|
8
口②口口 |--①-|
②口①口 |--②-|
口①口②
口口②口

口口口口
口③④④
④④③口 |--③-|
口口口口 |--④-|
9
①③②② |--①-|
①口③口 |--②-|
口③口① |--③-|
②②③① |----|
10
口口③② |①---|
④①口口 |----|
①口①口 |②-③-|
口口口口 |--④-|
11
口口口③ |----|
口口①口 |--①-|
口②口口 |②---|
口口口口 |③---|
12
口①口口 |①---|
口②口口 |②---|
②口②口
口②口口

口④口口
④口⑤③
口③口⑤ |③---|
口口口③ |④-⑤-|
13
①②口口 |----|
口口口③ |--①-|
口口口口 |②---|
口口口口 |③---|
14
口口口口 |----|
口④口口 |①---|
④①④③ |②-③-|
口口②口 |--④-|
15
口口②① |----|
③口口口 |--①-|
口口口口 |②---|
口口口口 |③---|
16
口口口口 |①---|
口②口① |②---|
口②口①
口口口口

口④口口
④口⑤口
口口③⑤ |③---|
口口③口 |④-⑤-|
17
口口④④ |--①-|
③口口口 |②-③-|
口②⑤⑤ |④---|
①口口口 |⑤---|
18
口口口口 |①---|
口口口② |②---|
口①口口
①口①②

③④口口
口口口⑥
⑤口口口 |③-④-|
口口口口 |⑤-⑥-|
19
⑤口口口 |--①-|
口③口口 |②-③-|
口口④口 |④---|
①②口口 |⑤---|
20
口④口口 |①---|
②⑤①④ |②---|
⑤①②① |③---|
②③①③ |④-⑤-|
21
口口④③ |--①-|
⑤口口口 |②-③-|
口口口口 |④---|
①②口口 |⑤---|
22
口口口口 |①---|
口②⑤⑤ |②---|
④口②口 |③-④-|
①③口② |--⑤-|
23
口口④③ |--①-|
⑤口口口 |②-③-|
口口口口 |④---|
①②口口 |⑤---|
24
口口口口 |①---|
口②口① |②---|
口②口①
口口口口

口④口口
④口⑤口
口口③⑤ |③---|
口口③口 |④-⑤-|
25
口口口口 |--①-|
口⑤④③ |②-③-|
⑤④③⑥ |④-⑤-|
①②⑥⑥ |--⑥-|
26
口①口口 |--①-|
①口②口 |②-③-|
口③口口
口口口口

口⑥口口
⑥口口口
口口口⑤ |④---|
④口⑤⑤ |⑤-⑥-|
27
口口口口 |①-②-|
口口①口 |③---|
口②口口
③口口口

⑥口⑥口
⑤⑥⑤口
④⑤④口 |--④-|
口④口口 |⑤-⑥-|
28
口①口口 |----|
口③口口 |----|
口口②口 |①-②-|
口口④口 |③-④-|
29
口口口口 |--①-|
口口口口 |②---|
口口口口
①口口②

口口口口
口④③口
④③口⑤ |③-④-|
口口⑤⑤ |--⑤-|
30
口①口口 |--①-|
①口②口 |②-③-|
口③口口
口口口口

口⑥口口
⑥口口口
口口口⑤ |④---|
④口⑤⑤ |⑤-⑥-|
31
口口⑥口 |①-②-|
口⑤①⑥ |③---|
④②⑤口 |--④-|
③④口口 |⑤-⑥-|
32
口③口口 |----|
③口②口 |----|
口②口① |--①-|
口口①口 |②-③-|
33
口②①口 |----|
②口口① |----|
①口口② |①---|
口①②口 |②---|
34
口口口口 |①---|
口口①口 |----|
口①口口
口口口口

口口口②
③口④口
口④口③ |--②-|
②口口口 |③-④-|
35
①口①口 |①---|
口口口口 |②---|
口口口口
口②口②

口口⑤⑤
口口④④
③③口口 |③-④-|
口口⑤⑤ |--⑤-|
36
口①口口 |--①-|
②③②口 |②-③-|
口口口口
口口口口

口⑤⑥⑤
口口口口
④口④口 |④---|
口口口口 |⑤-⑥-|
37
口口口口 |①-②-|
口①②① |③---|
口③口③
口口口口

口口口口
⑦口口⑥
口口⑤口 |④-⑤-|
口④口口 |⑥-⑦-|
38
口②③口 |--①-|
⑥④①⑤ |②-③-|
④⑤④⑥ |④---|
⑥④口⑤ |⑤-⑥-|
39
②①①② |--①-|
口口口口 |②---|
口口口口
口口口口

口口⑤⑤
口口③③
④④口口 |③-④-|
口口⑤⑤ |--⑤-|
40
口①口口 |--①-|
②③②口 |②-③-|
口口口口
口口口口

口⑤⑥⑤
口口口口
④口④口 |④---|
口口口口 |⑤-⑥-|
41
口口口口 |①-②-|
口①②① |③---|
口③口③
口口口口

口口口口
⑦口口⑥
口口⑤口 |④-⑤-|
口④口口 |⑥-⑦-|
42
口口①口 |--①-|
口②口口 |②-③-|
口口口口
口口口③

⑤口⑥口
口⑥口④
⑥口④口 |④---|
口④口口 |⑤-⑥-|
43
口口⑤⑤ |--①-|
口口④④ |②---|
③③①口 |③-④-|
口②⑤⑤ |--⑤-|
44
口①口口 |--①-|
②③②口 |②-③-|
口口口口
口口口口

口⑤⑥⑤
口口口口
④口④口 |④---|
口口口口 |⑤-⑥-|
45
口口口口 |①-②-|
口①②① |③---|
口③口③
口口口口

口口口口
⑦口口⑥
口口⑤口 |④-⑤-|
口④口口 |⑥-⑦-|
46
口②③口 |--①-|
⑥口①⑤ |②-③-|
④⑤⑥④ |④---|
⑥口口⑤ |⑤-⑥-|
47
①口②① |--①-|
口口口口 |②---|
口口口口
口口口口

口口⑤⑤
口口④④
③③口口 |③-④-|
口口⑤⑤ |--⑤-|
48
口①口口 |--①-|
②③②口 |②-③-|
口口口口
口口口口

口⑤⑥⑤
口口口口
④口④口 |④---|
口口口口 |⑤-⑥-|
49
口口口口 |①-②-|
③①②① |③---|
口口口口
口口口口

口口口口
⑦口口⑥
口口⑤口 |④-⑤-|
口④口口 |⑥-⑦-|
50
口②①口 |--①-|
口口口口 |②-③-|
口口口口
口口口③

⑤口⑥口
口⑥口④
⑥口④口 |④---|
口④口口 |⑤-⑥-|
51
口口口⑤ |--①-|
⑤口口口 |②---|
口④口② |③-④-|
③口①口 |--⑤-|
52
口②①口 |--①-|
口口口口 |②-③-|
口口口口
口口口③

⑥⑥⑥⑥
口④口④
口⑤④⑤ |④---|
口口⑤口 |⑤-⑥-|

不確定度: 0

最終更新:2014年12月11日 22:29