Boom! Boom! Miracle Emotion
ひろしま MAPLE★S

BASIC

Level: 3
BPM: 156
Notes: 150

1
口口口口 |----|
口口口口 |----|
口口口口 |----|
口口口口 |----|
2
口口口口 |①---|
口②口口 |----|
①口口口 |②---|
口口口口 |----|
3
口口口口 |①---|
口口口② |----|
口口①口 |②---|
口口口口 |----|
4
口口口口 |①---|
口口口口 |----|
口口口口 |②---|
口①②口 |----|
5
口口口口 |①---|
口口口口 |----|
①口口② |②---|
口口口口 |----|
6
口①口口 |①---|
口口口② |----|
口口口口 |②---|
口口口口 |----|
7
口口①口 |①---|
②口口口 |----|
口口口口 |②---|
口口口口 |----|
8
口口口口 |①---|
口口口口 |----|
②口口① |②---|
口口口口 |----|
9
口口口口 |①---|
口口口口 |----|
口口口口 |②---|
②口口① |----|
10
口口口口 |①---|
口①①口 |----|
口口口口 |----|
口口口口 |----|
11
口口口口 |①---|
口口口口 |----|
口①②口 |②---|
口口口口 |----|
12
②①口口 |①---|
口口口口 |----|
口口口口 |②---|
口口口口 |----|
13
口口口口 |①---|
口口口口 |----|
口口口口 |②---|
口口①② |----|
14
口口口口 |①---|
口②口口 |----|
①口口口 |②---|
口口口口 |----|
15
口口口口 |①---|
口口①口 |----|
口口口② |②---|
口口口口 |----|
16
口口口口 |①---|
口口口口 |----|
口口口口 |②---|
口①②口 |----|
17
①口口② |①---|
口①②口 |----|
口口口口 |②---|
口口口口 |----|
18
口口①口 |①---|
口口②口 |----|
口口口口 |②---|
口口口口 |----|
19
口口口口 |①---|
口口口口 |----|
口口①口 |②---|
口口口② |----|
20
口口口口 |①---|
口口口口 |----|
口②口口 |②---|
口①口口 |----|
21
口口口口 |①---|
口①口口 |----|
口口口口 |----|
口口口口 |----|
22
口口口口 |①---|
口口①口 |----|
口①口口 |----|
口口口口 |----|
23
口口口① |①---|
口口口口 |----|
口口②口 |②---|
口口口口 |----|
24
口①口口 |①---|
口口口口 |----|
②口口口 |②---|
口口口口 |----|
25
口口口口 |①---|
口①①口 |----|
口口口口 |----|
口口口口 |----|
26
口口口口 |①---|
口②口口 |----|
口口口口 |②---|
①口口口 |----|
27
口口口口 |①---|
口口口② |----|
口口口口 |②---|
口口①口 |----|
28
口口口口 |①---|
口口②口 |----|
口口①口 |②---|
口口口口 |----|
29
口口①口 |①---|
口口口口 |----|
口口口口 |----|
口口口口 |----|
30
口②口口 |①---|
①口口口 |----|
口口口口 |②---|
口口口口 |----|
31
口口口口 |①---|
口口①口 |----|
口②口口 |②---|
口口口口 |----|
32
口口口口 |①---|
口口口口 |----|
口口口② |②---|
口口①口 |----|
33
口口口口 |①---|
口口①口 |----|
口②口口 |②---|
口口口口 |----|
34
口②口口 |①---|
口①口口 |----|
口口口口 |②---|
口口口口 |----|
35
口口口口 |①---|
口口口口 |----|
口口①口 |②---|
口口②口 |----|
36
口口口口 |①---|
①口口① |----|
口口口口 |----|
口口口口 |----|
37
口口口口 |----|
口口口口 |----|
口①口口 |①---|
口口口口 |----|
38
口口口口 |①---|
口口口口 |----|
①口①口 |----|
口口口口 |----|
39
口口口口 |①---|
口①口① |----|
口口口口 |----|
口口口口 |----|
40
口口口口 |①---|
口口口口 |----|
②②口口 |②---|
口①①口 |----|
41
口②②口 |①---|
口口①① |----|
口口口口 |②---|
口口口口 |----|
42
口口口口 |①---|
口①①口 |----|
口口口口 |----|
口口口口 |----|
43
口口口口 |①---|
口口口② |----|
①口口口 |②---|
口口口口 |----|
44
①口口① |①---|
②口口② |----|
口口口口 |②---|
口口口口 |----|
45
口口口口 |①---|
口口口口 |----|
①口口① |②---|
②口口② |----|
46
口口口口 |①---|
口①口口 |----|
口口②口 |②---|
口口口口 |----|
47
④口口口 |①---|
③口口口 |②---|
②口口口 |③---|
①口口口 |④---|
48
口口口① |①---|
口口口② |②---|
口口口③ |③---|
口口口④ |④---|
49
口口②口 |①---|
口口口口 |----|
口口口口 |②---|
口①口口 |----|
50
口口口口 |①---|
口口口口 |②---|
②③③① |③---|
口口口口 |----|
51
口口口口 |①---|
④口②① |②---|
口③口口 |③---|
口口口口 |④---|
52
口口口口 |①---|
口②口口 |②---|
①口③④ |③---|
口口口口 |④---|
53
②口口口 |①---|
口口口口 |----|
口口口口 |②---|
口口口① |----|
54
口口②① |①---|
口口口口 |②---|
口口口口 |③---|
③④口口 |④---|
55
口口口口 |①---|
口口口口 |----|
口①①口 |----|
口口口口 |----|
56
口口口口 |①---|
口①①口 |----|
口口口口 |----|
口口口口 |----|
57
口口口口 |①---|
口口口口 |----|
①口口① |----|
口口口口 |----|
58
口①①口 |①---|
口口口口 |----|
口③③口 |②---|
口②②口 |③---|
59
①口口① |①---|
口口口口 |----|
口口口口 |----|
口口口口 |----|
60
口口口① |①---|
口口②口 |----|
口口口口 |②---|
口口口口 |----|
61
口口口口 |①---|
口口口口 |----|
口②口口 |②---|
①口口口 |----|
62
口口口口 |①---|
口口①口 |----|
口口口口
口口口口

口口口口
③③③③
口②②口 |②---|
口口口口 |--③-|

不確定度: 0

最終更新:2014年12月11日 22:20