Starlight Parade
肥塚良彦

BASIC

Level: 4
BPM: 131
Notes: 206

1
口口口口 |----|
口口口口 |----|
口口口口 |----|
口口口口 |----|
2
口口口口 |----|
口口口口 |----|
口口口口 |----|
口口口口 |----|
3
口口口口 |①---|
①③②① |----|
口②③口 |②---|
口口口口 |③---|
4
口口②口 |----|
口口口① |①---|
口口口口 |----|
口口口口 |②---|
5
口口口口 |----|
口①口口 |①---|
口口②口 |----|
口口口口 |②---|
6
口口口口 |①---|
③口①② |----|
②口口③ |②---|
口口口口 |③---|
7
口口口口 |----|
口②①口 |----|
口①②口 |①---|
口口口口 |②---|
8
口口②口 |----|
口口口① |①---|
口口口口 |----|
口口口口 |②---|
9
口口口口 |----|
口①口口 |①---|
口口②口 |----|
口口口口 |②---|
10
口口口口 |----|
口口口口 |----|
口口口口 |----|
口口口口 |----|
11
口口②口 |①---|
口①口① |----|
口口②口 |②---|
口口口口 |----|
12
口口口口 |①---|
口口口口 |----|
口口口口 |②---|
口②口① |----|
13
②口①口 |①---|
口③口口 |②---|
口口④口 |③---|
口口口口 |④---|
14
口口口口 |①---|
口口口口 |----|
①口口口 |----|
口口口口 |----|
15
口口①口 |①---|
口②口② |----|
口口①口 |②---|
口口口口 |----|
16
③口②口 |①---|
口口口口 |----|
口口口口 |②---|
口口①口 |③---|
17
口口口口 |①---|
口口口口 |②---|
②口①口 |----|
口口口口 |----|
18
口①口① |①---|
②口②口 |②---|
口③口③ |③---|
④口④口 |④---|
19
口口②口 |①---|
口①口① |----|
口口②口 |②---|
口口口口 |----|
20
口口口口 |①---|
口口口口 |----|
口口口口 |②---|
口②口① |----|
21
口口口④ |①---|
口口③口 |②---|
口②口口 |③---|
①口口口 |④---|
22
口①口口 |①---|
口口口口 |----|
口口口口 |----|
口口口口 |----|
23
口口口口 |①---|
口口④口 |②---|
口③口② |③---|
口口①口 |④---|
24
口②口① |①---|
口口口口 |②---|
口口口口 |----|
口口口口 |----|
25
口口④口 |①---|
口③口口 |②---|
②口①口 |③---|
口口口口 |④---|
26
①口口口 |①---|
③口口② |----|
②口口③ |②---|
口口口口 |③---|
27
口口口口 |----|
口②①口 |----|
口①②口 |①---|
口口口口 |②---|
28
口口口口 |----|
口口②口 |①---|
口口口① |----|
口口口口 |②---|
29
口口口口 |----|
口口口口 |①---|
口①口口 |----|
口口②口 |②---|
30
①口口① |----|
口②口口 |①---|
口口③口 |②--③|
口④口口 |--④-|
31
口口口口 |----|
口口口口 |①---|
口口②口 |----|
口口口① |②---|
32
口口②口 |----|
口口口① |①---|
口口口口 |----|
口口口口 |②---|
33
口口口① |----|
口口口口 |①---|
口口口口 |----|
口口口口 |----|
34
口口口口 |----|
口口口口 |----|
口口口口 |----|
口口口口 |----|
35
口口口口 |①---|
口②①口 |②---|
口①②口 |----|
口③③口 |③---|
36
①口口① |----|
口口口口 |①---|
口口口口 |----|
口口口② |--②-|
37
口口③口 |--①-|
口口口② |--②-|
口口①口 |--③-|
口口口口 |----|
38
口①口口 |①---|
②口口口 |②---|
口③口口 |③---|
④口口口 |④---|
39
口口口口 |----|
口口口口 |----|
口口口口 |----|
口口口口 |----|
40
口口口口 |①---|
口口③口 |②---|
口口①口 |③---|
口口②④ |④---|
41
口口口口 |①---|
口口口④ |②---|
口③口② |③---|
口①口口 |④---|
42
口③口② |①---|
口①口口 |②---|
口④口④ |③---|
口口口口 |④---|
43
口口口口 |①---|
口口①口 |----|
口口口口 |----|
②口①口 |②---|
44
口③③口 |①---|
②口口口 |②---|
口①口口 |③---|
口口口④ |④---|
45
口口口口 |①---|
口口口② |②---|
口口①口
口口口口

口③③口
口口口口
口口④口 |③---|
口口口口 |④---|
46
口口口口 |①---|
②口口② |②---|
③①口③ |③---|
④口口④ |④---|
47
④口口④ |①---|
口③③口 |②---|
口②②口 |③---|
口①①口 |④---|
48
口口口口 |①---|
口③口口 |②---|
口①口口 |③---|
口②④口 |④---|
49
口口口口 |①---|
口口④口 |②---|
③口②口 |③---|
①口口口 |④---|
50
③口②口 |①---|
①口口口 |②---|
④口④口 |③---|
口口口口 |④---|
51
口口口口 |①---|
口①口口 |----|
口口口口 |----|
口①口② |②---|
52
口口口③ |①---|
口口口② |②---|
口口口① |③---|
口④口口 |④---|
53
口③④口 |①---|
口②口口 |②---|
口①口口 |③---|
口口口口 |④---|
54
口口口口 |①---|
口口①口 |②---|
口口②口 |----|
口口口口 |----|
55
口口口口 |①---|
②④③① |②---|
①③④② |③---|
口口口口 |④---|
56
口口②口 |①---|
口口口① |----|
口口口口 |②---|
口口口口 |----|
57
口④口④ |①---|
口①口口 |----|
口③②③ |②---|
口口口口 |③--④|
58
口口口口 |----|
口口口口 |----|
口口口口 |----|
口口口口 |----|
59
口口口口 |----|
口口口口 |----|
口口口口 |----|
口口口口 |----|
60
口口口口 |①---|
①口口② |----|
②口口① |②---|
口口口口 |----|
61
口口口口 |①---|
口①口口 |----|
口口①口
口口口口

④口④口
口口②口
③②③口 |②---|
口口口口 |③--④|


不确定度: 0

タグ:

+ タグ編集
  • タグ:

このサイトはreCAPTCHAによって保護されており、Googleの プライバシーポリシー利用規約 が適用されます。

最終更新:2012年11月08日 18:37