Boom! Boom! Miracle Emotion
ひろしま MAPLE★S

EXTREME

Level: 8
BPM: 156
Notes: 494

1
①口②口 |----|
口口口口 |----|
口口口口 |--①-|
口口口口 |--②-|
2
③口口⑥ |--①-|
口口口口 |②-③-|
口①④口 |--④-|
口⑤②口 |⑤-⑥-|
3
⑦口③⑤ |--①-|
口④①口 |②-③-|
口②口口 |④-⑤-|
口⑥口口 |⑥-⑦-|
4
口⑥口口 |--①-|
口口①⑤ |②-③-|
②④口③ |--④-|
口口口口 |⑤-⑥-|
5
⑪口口⑩ |①②③④|
⑨口口⑧ |⑤-⑥⑦|
④⑦⑥③ |⑧-⑨-|
②口⑤① |⑩-⑪-|
6
⑧⑧①口 |①--②|
口②口⑦ |③-④-|
口⑥口③ |⑤--⑥|
④④⑤口 |⑦-⑧-|
7
⑥⑥⑥③ |①--②|
口②口口 |--③-|
口口⑤口 |④--⑤|
④口口① |--⑥-|
8
口口口口 |①--②|
口③③③ |--③-|
②口口口
口①口口

口口口口
口口口口
⑥口口⑤ |④--⑤|
⑥口④口 |--⑥-|
9
⑧⑥⑤⑪ |①②③④|
④口⑦③ |⑤⑥⑦-|
口②①口 |⑧-⑨-|
⑩口口⑨ |⑩-⑪-|
10
口①口口 |①---|
⑤②③口 |②-③-|
口口④口 |--④-|
口口口口 |--⑤-|
11
口①口口 |--①-|
④口口④ |②-③-|
口⑤⑤② |--④-|
口口③口 |--⑤-|
12
口口⑤口 |①-②-|
口④⑥口 |③-④-|
口⑦口口 |⑤---|
①②③口 |⑥-⑦-|
13
②①口口 |--①-|
口口口口 |②-③-|
口口③口
口口③口

口⑥口⑤
口⑥口⑤
④口口口 |--④-|
④口口口 |⑤-⑥-|
14
口口③口 |①---|
②口口口 |②-③-|
口口口①
口口口口

口口口⑤
口⑤口口
口④口⑤ |--④-|
口⑤口口 |--⑤-|
15
①④④口 |--①-|
②口①② |--②-|
①③③口 |--③-|
②口①② |--④-|
16
①口口口 |①-②-|
口口⑥② |③-④-|
③口口口 |⑤-⑥-|
口⑤口④ |----|
17
口口⑥口 |--①-|
②口口② |②---|
⑥①①⑤ |③-④-|
④③③④ |⑤-⑥-|
18
口③口① |--①-|
③口①口 |②-③-|
口口口口
口口②口

④口口⑥
口④口⑥
口口口口 |--④-|
口⑤口口 |⑤-⑥-|
19
口③①口 |--①-|
口③①口 |②-③-|
口口口口
口口②口

④口⑥口
④口口口
口口口口 |--④-|
⑤口口口 |⑤-⑥-|
20
④③口① |--①-|
③④①口 |②-③-|
口口口⑥ |--④-|
口⑤②口 |⑤-⑥-|
21
⑥⑦①② |①②③④|
口⑧③④ |⑤-⑥⑦|
口⑩⑤口 |⑧-⑨-|
⑨口⑩口 |--⑩-|
22
口口口① |----|
口④口口 |①---|
口③口口 |--②-|
口②口③ |③-④-|
23
口①③口 |--①-|
②口④口 |②-③-|
口⑥口口 |④---|
口⑤⑤口 |⑤-⑥-|
24
口④口① |--①-|
④④口② |②-③-|
口口③⑤ |--④-|
②口⑤⑤ |--⑤-|
25
口口①口 |----|
口口②① |①--②|
口口④④ |--③-|
口口③③ |--④-|
26
口④③② |--①-|
口口①口 |②-③-|
⑤口⑥⑤ |④---|
②口口口 |⑤-⑥-|
27
①口⑥口 |--①-|
②⑤⑤⑥ |②-③-|
口③口口 |④---|
口④口② |⑤-⑥-|
28
口①口口 |----|
①口口口 |①---|
口口口② |----|
口口②口 |②---|
29
口口口⑤ |----|
①口口④ |①--②|
③口③口 |--③-|
口口②口 |④-⑤-|
30
②口口口 |--①-|
③①⑥口 |②-③-|
口④口⑤ |④---|
口⑤口口 |⑤-⑥-|
31
口口口口 |--①-|
②口⑤口 |②---|
口④①口 |--③-|
③口②口 |④-⑤-|
32
口⑥⑤① |①---|
口③口口 |②-③-|
⑤口④② |④---|
口口口口 |⑤-⑥-|
33
⑤口口⑤ |--①-|
③④口③ |--②-|
口①②口 |--③-|
口①口② |④-⑤-|
34
口口口口 |--①-|
口⑤①口 |②---|
②④②④ |--③-|
口口③口 |④-⑤-|
35
①②③⑥ |--①-|
②口口⑥ |②---|
③口④口 |③-④-|
⑥⑥口⑤ |⑤-⑥-|
36
口口口口 |----|
口②口口 |①---|
②口口① |----|
口口①口 |②---|
37
口口口口 |----|
口③②口 |①---|
③①口② |②---|
口口①口 |③---|
38
口口口② |①---|
②③口口 |----|
口口④口 |②---|
①口①① |③-④-|
39
①口口口 |①-②-|
口口③① |③---|
口②口口
口口口口

口口⑤口
口口口⑤
④口口口 |④---|
口④口口 |⑤---|
40
①口口⑤ |①-②-|
⑤②⑦口 |③-④-|
口③⑥① |⑤---|
口④①口 |⑥-⑦-|
41
②口①口 |--①-|
口④口口 |②-③-|
口口⑤④ |④---|
③口⑥口 |⑤-⑥-|
42
口①口口 |----|
①口口口 |①---|
口口口② |----|
口口②③ |②-③-|
43
口②口口 |--①-|
②①④⑥ |②-③-|
⑤③口⑥ |④---|
⑤口口口 |⑤-⑥-|
44
①①口② |--①-|
口⑤口口 |②---|
口口⑥口 |③-④-|
③③口④ |⑤-⑥-|
45
③②②① |--①-|
口口口口 |②-③-|
口口口口
口③①口

口口口口
⑤④口口
⑦⑥⑨⑧ |④⑤⑥⑦|
口口⑪⑩ |⑧⑨⑩⑪|
46
口①④口 |①--②|
⑤④⑦③ |--③-|
⑤⑥⑦口 |④-⑤-|
②⑥口口 |⑥-⑦-|
47
①①②② |①---|
⑥⑥④④ |②---|
③口口⑤ |③-④-|
口③⑤口 |⑤-⑥-|
48
口①口口 |--①-|
口口口口 |②---|
口②②口
口口口口

⑥⑥③口
口口③口
口口口⑤ |③-④-|
口口口④ |⑤-⑥-|
49
口口③③ |--①-|
口口口口 |②-③-|
②口口口
①口口口

口口口口
⑥口口口
口口口⑥ |--④-|
⑥④⑤口 |⑤-⑥-|
50
③③③③ |--①-|
口②②① |②---|
①⑤口口 |③---|
口④口① |④-⑤-|
51
②口口口 |①---|
口②①口 |②---|
⑤⑤③③ |③-④-|
口④⑥口 |⑤-⑥-|
52
口③③⑤ |--①-|
②①①② |②---|
④口口口 |③---|
口④口口 |④-⑤-|
53
②口口口 |--①-|
口③口⑤ |②---|
口③①口 |③---|
④④口① |④-⑤-|
54
口④①口 |--①-|
③⑤⑤口 |②---|
口⑤⑤口 |③-④-|
口口②② |--⑤-|
55
口口口口 |----|
口口口口 |----|
口①口口 |----|
口①口口 |--①-|
56
口口②口 |--①-|
①口口② |②---|
口口③口 |----|
口口③口 |--③-|
57
口②口口 |--①-|
②口口① |②---|
③口口口 |----|
口③口口 |--③-|
58
⑤④④⑤ |--①-|
口③①口 |②-③-|
口口口② |④---|
口口②口 |⑤---|
59
口口口口 |①---|
①口口① |----|
①①①①
口口口口

口口口口
口口②口
口口②口 |----|
口口口口 |--②-|
60
口口②② |--①-|
口③口② |②---|
口③口口 |----|
①口口口 |--③-|
61
②②③口 |--①-|
②口口口 |②---|
口口口口 |----|
口④口① |③-④-|
62
⑨口口② |--①-|
①⑨③④ |②③④⑤|
⑨口⑤⑥ |⑥⑦⑧-|
口口⑦⑧ |--⑨-|

不確定度: 0

最終更新:2014年12月11日 22:15