A to Z
OSAKA翔GANGS

BASIC

Level: 4
BPM: 160-204
Notes: 195

BPM: 160
1
口口口口 |----|
口口口口 |----|
口口口口 |----|
口口口口 |----|
2
口口口口 |①---|
①口口口 |----|
口口口口 |----|
口口口口 |----|
3
口口口口 |----|
口口①口 |----|
口口口口 |①---|
口口口口 |----|
4
口口口口 |①---|
口口口口 |----|
口口①口 |----|
口口口口 |----|
5
口口口口 |----|
口口口口 |----|
口口口口 |----|
口口口口 |----|
6
口口口口 |①---|
口口口① |----|
口口口口 |----|
口口口口 |----|
7
口口口口 |----|
口①口口 |----|
口口口口 |①---|
口口口口 |----|
8
口口口口 |①---|
口口口口 |----|
口①口口 |----|
口口口口 |----|
9
口口口口 |----|
口口口口 |----|
口口口口 |----|
口口口口 |----|
10
口口口口 |①---|
口①①口 |----|
口口口口 |----|
口口口口 |----|
11
口口口口 |----|
口口①口 |----|
口口口口 |①---|
口口口口 |----|
12
口口口口 |①---|
口口口口 |----|
口口①口 |----|
口口口口 |----|
13
口口口口 |----|
口口口口 |----|
口口口口 |----|
口口口口 |----|
14
口口口口 |①---|
口①①口 |----|
口口口口 |----|
口口口口 |----|
15
口口口口 |----|
口①口口 |----|
口口口口 |①---|
口口口口 |----|
16
口口口口 |①---|
口口口口 |----|
口①口口 |----|
口口口口 |----|
17
口口口口 |----|
口口口口 |----|
口口口口 |----|
口口口口 |----|

BPM: 204
18
口口口口 |----|
口口口口 |----|
口口口口 |----|
口口口口 |----|
19
口口口口 |----|
口口口口 |----|
口口口口 |----|
口口口口 |----|
20
口口口口 |①---|
①②口口 |----|
口口口口 |②---|
口口口口 |----|
21
口口口口 |①---|
口口口口 |----|
口口②① |②---|
口口口口 |----|
22
口①①口 |①---|
口②②口 |----|
口口口口 |②---|
口口口口 |----|
23
②口口口 |①---|
口口口口 |----|
口①①口 |----|
口口口口 |②---|
24
口①①口 |①---|
口②②口 |----|
口口口口 |②---|
口口口口 |----|
25
口口口口 |①---|
口口口口 |----|
口①①口 |----|
口口口口 |----|
26
口①①口 |①---|
口②②口 |----|
口口口口 |②---|
口口口口 |----|
27
口口口② |①---|
口口口口 |----|
口①①口 |----|
口口口口 |②---|
28
口①①口 |①---|
口②②口 |----|
口口口口 |②---|
口口口口 |----|
29
口口口口 |①---|
口口口口 |----|
口①①口 |----|
口口口口 |----|
30
口口口口 |①---|
口口口口 |----|
口①②口 |②---|
口口口口 |----|
31
口口口口 |①---|
口口口② |----|
口口口① |----|
口口口口 |②---|
32
口口口口 |①---|
口口②口 |----|
口口①口 |②---|
口口口口 |----|
33
口口①口 |①---|
口口口口 |----|
口口口口 |----|
口口口口 |----|
34
①②口口 |①---|
口口口口 |----|
口口口口 |②---|
口口口口 |----|
35
口口①口 |①---|
口口②口 |----|
口口口口 |----|
口口口口 |②---|
36
口①口口 |①---|
口②口口 |----|
口口口口 |②---|
口口口口 |----|
37
口口口口 |①---|
口口口口 |----|
口①②口 |----|
口口口口 |②---|
38
口②口口 |①---|
口③①口 |②---|
口口口口 |③---|
口口口口 |----|
39
口口口口 |①---|
口口口口 |----|
口口②口 |----|
口①①口 |②---|
40
口②口口 |①---|
口③①口 |②---|
口口口口 |③---|
口口口口 |----|
41
口口口口 |①---|
口口口口 |----|
口口口口 |----|
口①①口 |----|
42
口口口口 |----|
①②口口 |①---|
口口口口 |②---|
口口口口 |----|
43
口口口口 |①---|
口③口口 |----|
口②口① |②---|
口口口口 |③---|
44
②①口② |①---|
口口口口 |----|
口口口口 |②---|
口口口口 |----|
45
口口口口 |①---|
①口口① |----|
②口口② |②---|
口口口口 |----|
46
口口口口 |①---|
②①①② |②---|
口口口口 |----|
口口口口 |----|
47
口口口口 |----|
口口口口 |----|
①口口① |----|
口口口口 |①---|
48
①口口① |①---|
②口口② |②---|
口口口口 |----|
口口口口 |----|
49
口口口口 |----|
口①①口 |----|
口口口口 |----|
口口口口 |①---|
50
①口口① |①---|
口口口口 |②---|
②口口② |----|
口口口口 |----|
51
口口口口 |----|
口口口口 |----|
口口口口 |----|
口口口口 |----|
52
口口口口 |①---|
口①①口 |----|
口②②口 |②---|
口口口口 |----|
53
口口口口 |①---|
口口口口 |----|
口②口口 |②---|
口①①口 |----|
54
口①口口 |①---|
口口口② |----|
口口口口 |②---|
口口口口 |----|
55
口口口口 |①---|
口口①口 |②---|
口口口② |③---|
口口③口 |----|
56
口口口口 |①---|
②口口口 |----|
口①口口 |②---|
口口口口 |----|
57
口口口口 |①---|
口①口口 |②---|
②口口口 |③---|
口③口口 |----|
58
口口口③ |①---|
口口口② |②---|
口口口① |③---|
口口口口 |----|
59
③口口口 |①---|
②口口口 |②---|
①口口口 |③---|
口口口口 |----|
60
口口口口 |①---|
口②②口 |----|
口①①口 |②---|
口口口口 |----|
61
口①①口 |①---|
口口口口 |----|
口②口口 |②---|
口口口口 |----|
62
口①口口 |①---|
口口口② |----|
口口口口 |②---|
口口口口 |----|
63
口口口口 |①---|
口口①口 |②---|
口口口② |③---|
口口③口 |----|
64
口口口口 |①---|
②口口口 |----|
口①口口 |②---|
口口口口 |----|
65
口口口口 |①---|
口①口口 |②---|
②口口口 |③---|
口③口口 |----|
66
①口口① |①---|
②口口② |----|
口口口口 |②---|
口口口口 |----|
67
口口口口 |①---|
口口口口 |----|
②口口② |②---|
①口口① |----|
68
口①①口 |①---|
口②②口 |②---|
口口口口 |----|
口③③口 |③---|
69
口口口口 |①---|
②口口② |----|
口①①口 |②---|
口口口口 |----|
70
口①口口 |----|
口口口口 |----|
口口口口 |①---|
口口口口 |----|
71
口口口口 |①---|
口①口口 |----|
口②口口 |②---|
口口口口 |----|
72
口口口口 |----|
口口①口 |----|
口口口口 |①---|
口口口口 |----|
73
口口口口 |①---|
口口口口 |----|
口口①口 |②---|
口口②口 |----|
74
口口口口 |----|
口①口口 |----|
口口口口 |①---|
口口口口 |----|
75
口口口口 |----|
口口口口 |----|
口口①口 |①---|
口口口口 |----|
76
口口口口 |①---|
口口口口 |----|
②口口② |②---|
口①口口 |----|
77
②口口② |①---|
①口口① |----|
口口口口 |②---|
口口口口 |----|
78
口①口口 |----|
口口口口 |----|
口口口口 |①---|
口口口口 |----|
79
口口口口 |①---|
口①口口 |----|
口②口口 |②---|
口口口口 |----|
80
口口口口 |----|
口口①口 |----|
口口口口 |①---|
口口口口 |----|
81
口口口口 |①---|
口口口口 |----|
口口①口 |②---|
口口②口 |----|
82
①口口① |①---|
②口口② |----|
口口口口 |②---|
口口口口 |----|
83
口口口口 |①---|
口口口口 |----|
②口口② |②---|
①口口① |----|
84
口①①口 |①---|
口②②口 |②---|
口口口口 |----|
口③③口 |③---|
85
口口口口 |①---|
②口口② |----|
口①①口 |②---|
口口口口 |----|

不確定度: 0

最終更新:2014年12月11日 22:28