A to Z
OSAKA翔GANGS

ADVANCED

Level: 6
BPM: 160-204
Notes: 405

BPM: 160
1
口口口口 |----|
口口口口 |----|
口口口口 |----|
口口口口 |----|
2
口口口口 |①---|
①口口口 |②-③-|
口②③④ |④---|
口口口口 |----|
3
口①口口 |----|
口口口口 |----|
口②口口 |①---|
口口口口 |--②-|
4
口口口口 |①---|
口④③② |②-③-|
⑤⑥口口 |④---|
口①口口 |⑤-⑥-|
5
口口口口 |①---|
口口口口 |②-③-|
口口①口 |④---|
口④③② |----|
6
口口口口 |①---|
口口口① |②-③-|
④③②口 |④---|
口口口口 |----|
7
口口①口 |----|
口口口口 |----|
口口口口 |①---|
口口口口 |----|
8
口口口口 |①---|
②③口口 |②-③-|
口口①口
口口口口

口口口口
口口④口
口口⑥⑤ |④---|
口口口口 |⑤-⑥-|
9
②口口口 |①-②-|
③口口口 |③-④-|
④①口口 |⑤-⑥-|
⑤⑥⑦口 |⑦---|
10
口口口口 |①---|
①口口口 |②-③-|
口②③④ |④---|
口口口口 |----|
11
口①口口 |----|
口口口口 |----|
口②口口 |①---|
口口口口 |--②-|
12
口口口口 |①---|
口④③② |②-③-|
⑤⑥口口 |④---|
口①口口 |⑤-⑥-|
13
口口口口 |①---|
口口口口 |②-③-|
口口①口 |④---|
口④③② |----|
14
口口口口 |①---|
口口口① |②-③-|
④③②① |④---|
口口口口 |----|
15
口口①口 |----|
口口口口 |----|
口口口口 |①---|
口口口口 |----|
16
口口口口 |①---|
②③口口 |②-③-|
口口①口
口口口口

口口口口
口口④口
口口⑥⑤ |④---|
口口口口 |⑤-⑥-|
17
②口口口 |①-②-|
③口口口 |③-④-|
④①口口 |⑤---|
⑤口⑦⑥ |⑥-⑦-|

BPM: 204
18
口口口口 |----|
口口口口 |----|
口口口口 |----|
口口口口 |----|
19
口口口口 |----|
口口口口 |----|
口口口口 |----|
口口口口 |----|
20
口④④口 |①---|
口③③口 |②---|
口②②口 |③---|
口①①口 |④---|
21
①口口① |①---|
口口口口 |----|
①口口① |----|
口口口口 |----|
22
口口口口 |①---|
口口口口 |②---|
③③④口 |③---|
口②①① |④---|
23
③口⑤④ |①---|
③②①① |②---③-|
口口口口 |----④-|
口口口口 |⑤---|
24
口口口口 |①---|
口口口口 |②---|
口④③③ |③---|
①①②口 |④---|
25
④⑤口③ |①---|
①①②③ |②---③-|
口口口口 |----④-|
口口口口 |⑤---|
26
口口口口 |①---|
口口口口 |②---|
口③③④ |③---|
②①①口 |④---|
27
口口口口 |①---|
④⑤⑤④ |②---③-|
口③③口 |----④-|
②①①② |⑤---|
28
①①①① |①---|
口口口口 |----|
口口口口 |----|
口口口口 |----|
29
口口口口 |----|
口①口① |----|
口口口口 |----|
口口口口 |①---|
30
口口口口 |①---|
口口口口 |②---|
口①口② |③---|
口③口④ |④---|
31
口口口口 |①---|
口③口④ |②---③-|
口②①口 |----|
口口口口 |④---|
32
口口口口 |①---|
②口②口 |----|
①口①口 |②---|
口口口口 |----|
33
①口①口 |①---|
②口②口 |----|
口口口口 |----|
口口口口 |②---|
34
口口口口 |①---|
口口口口 |②---|
②口①口 |③---|
④口③口 |④---|
35
口口口口 |①---|
④口③口 |②---③-|
口①②口 |----|
口口口口 |④---|
36
口①口① |①---|
口②口② |----|
口口口口 |②---|
口口口口 |----|
37
口口口口 |①---|
口口口口 |----|
口①口① |----|
口口②口 |②---|
38
口③①口 |①---|
口口口口 |②---|
④口口口 |③---|
口②口口 |④---|
39
口④口口 |①---|
口口③③ |②---③-|
口①②② |----|
口口口口 |④---|
40
口口②口 |①---|
口口口④ |②---|
口口口口 |③---|
口①③口 |④---|
41
口口口口 |①---|
②②①口 |②---③-|
③③口口 |----|
口口口口 |----|
42
①口口③ |----①-|
②口口④ |②---③-|
⑤口口⑥ |④---|
口口口口 |⑤---⑥-|
43
口口口口 |①---|
口口④口 |②---|
口③口口 |③---|
口②口① |④---|
44
②②口① |①---|
口口口口 |----|
口口口口 |②---|
口口口口 |----|
45
口口口口 |①---|
口①①口 |----|
口口②② |②---|
口口口口 |----|
46
③④口口 |①---|
②口口口 |②---|
①②口口 |③---|
口①口口 |④---|
47
口口①② |①---|
口口口③ |②---|
口口口④ |③---|
口口④口 |④---|
48
口口口口 |①---|
④口口口 |②---|
③②①口 |③---|
②①口口 |④---|
49
①②③④ |①---|
口口④口 |②---|
口口口口 |③---|
口口口口 |④---|
50
口口口口 |①---|
口口口① |②---|
口口①② |③---|
口④②③ |④---|
51
⑥口⑤④ |①---|
③口口口 |②---|
②口口口 |③---④-|
①口口口 |⑤---⑥-|
52
口口口口 |①---|
④②①④ |②---|
③①②③ |③---|
口口口口 |④---|
53
①口口① |①---|
口②口口 |----|
口③口口 |②---|
口口口② |③---|
54
③口口② |①---|
口④①① |②---|
③口口② |③---|
口口口口 |④---|
55
口口口口 |①---|
口口④口 |②---③-|
口口①口 |----|
④②③口 |④---|
56
②口口③ |①---|
口①④口 |②---|
②口口③ |③---|
口口口口 |④---|
57
口口口口 |①---|
口口口口 |②---③-|
口①口口 |----|
口③②口 |----|
58
口口口③ |①---|
③口口② |②---|
②口口① |③---|
①口口口 |----|
59
口口口③ |①---|
③口口② |②---|
②口口① |③---|
①口口口 |----|
60
口口口口 |①---|
口口④口 |②---|
口③②口 |③---|
口口①① |④---|
61
①口口① |①---|
口②口口 |----|
口③口口 |②---|
口口口② |③---|
62
③口口② |①---|
口④①① |②---|
③口口② |③---|
口口口口 |④---|
63
口口口口 |①---|
口口④口 |②---③-|
口口①口 |----|
④②③口 |④---|
64
②口口③ |①---|
口①④口 |②---|
②口口③ |③---|
口口口口 |④---|
65
口口口口 |①---|
口口口口 |②---③-|
口①口口 |----|
口③②口 |----|
66
①口口④ |①---②-|
②口口① |--③---|
③口口② |④---|
④口口③ |----|
67
①口口④ |①---②-|
②口口① |--③---|
③口口② |④---|
④口口③ |----|
68
口①口口 |①---|
②口①② |②---|
口③口口 |----|
口口③口 |③---|
69
②口口② |①---|
口口口口 |----|
口口口口 |②---|
①口口① |----|
70
口①口口 |----|
口②③口 |①---|
口口口口 |②---|
口口口口 |③---|
71
口口③② |①---|
⑥口口口 |②---③-|
口口①口 |----④-|
④⑤口口 |⑤---⑥-|
72
口口口口 |----|
口①口口 |①---|
口②③口 |②---|
口口口口 |③---|
73
口口口口 |①---|
口口③② |②---③-|
口口口口 |----|
口口①口 |----|
74
口口口口 |----|
口口②口 |①---|
口③口口 |②---|
口①口口 |③---|
75
口口①口 |①---|
口③口口 |②---|
口口④口 |③---|
口口②口 |④---|
76
②①口② |①---|
口口口口 |----|
口口口口 |②---|
口口口口 |----|
77
口口口口 |①---|
①口口① |----|
②口口② |②---|
口口口口 |----|
78
口①口口 |----|
口②③口 |①---|
口口口口 |②---|
口口口口 |③---|
79
口口③② |①---|
⑥口口口 |②---③-|
口口①口 |----④-|
④⑤口口 |⑤---⑥-|
80
口口口口 |----|
口①口口 |①---|
口②③口 |②---|
口口口口 |③---|
81
口口口口 |①---|
口口③② |②---③-|
口口口口 |----|
口口①口 |----|
82
④口口① |①---②-|
①口口② |--③---|
②口口③ |④---|
③口口④ |----|
83
④口口① |①---②-|
①口口② |--③---|
②口口③ |④---|
③口口④ |----|
84
口①口口 |①---|
②口①② |②---|
口③口口 |----|
口口③口 |③---|
85
②口口② |①---|
②口口② |----|
口口口口 |②---|
①口口① |----|

不確定度: 0

最終更新:2014年12月11日 22:30