Ha・lle・lu・jah
SOUND HOLIC feat. Nana Takahashi

EXTREME

Level: 9
BPM: 150
Notes: 711

1
口口口口 |----|
口口口口 |----|
口口口口 |----|
口口口口 |----|
2
口⑤⑤口 |①-②-|
口口⑥口 |③-④-|
①⑦⑧④ |⑤-⑥⑦|
⑨③②口 |⑧-⑨-|
3
②口口① |①---|
口口③① |②---|
②③口口 |③---|
④口口④ |--④-|
4
①口口① |①---|
口口⑤口 |②-③-|
②⑥⑦③ |④-⑤⑥|
⑧④口口 |⑦-⑧-|
5
②②③口 |①-②-|
⑤口⑤③ |③-④-|
④⑤口⑤ |⑤---|
口④①① |----|
6
口口口⑤ |①②③④|
口口口口 |⑤-⑥-|
口④③口
口②①⑥

⑩口⑦口
口⑫口⑨
口口⑬口 |⑦⑧⑨⑩|
⑧⑭⑪口 |⑪⑫⑬⑭|
7
⑤口④③ |①-②-|
口⑦⑥口 |③④-⑤|
②⑪⑩① |--⑥⑦|
口⑨⑧口 |⑧⑨⑩⑪|
8
⑤口④③ |①-②-|
口⑦⑥口 |③④-⑤|
②⑪⑩① |--⑥⑦|
口⑨⑧口 |⑧⑨⑩⑪|
9
⑤口④③ |①-②-|
口⑦⑥口 |③④-⑤|
②⑪⑩① |--⑥⑦|
口⑨⑧口 |⑧⑨⑩⑪|
10
⑤口④③ |①-②-|
⑥⑥⑦⑦ |③④-⑤|
②口口① |⑥---|
⑦⑦⑥⑥ |⑦---|
11
⑤①①② |①-②-|
③⑧⑦⑨ |③④-⑤|
③⑩④⑨ |⑥-⑦⑧|
⑫⑥⑥⑪ |⑨⑩⑪⑫|
12
⑤①①② |①-②-|
③⑧⑦⑨ |③④-⑤|
③⑩④⑨ |⑥-⑦⑧|
⑫⑥⑥⑪ |⑨⑩⑪⑫|
13
⑤①①② |①-②-|
③⑧⑦⑨ |③④-⑤|
③⑩④⑨ |⑥-⑦⑧|
⑫⑥⑥⑪ |⑨⑩⑪⑫|
14
⑤①①② |①-②-|
③⑧⑦⑥ |③④-⑤|
③⑨④⑬ |⑥⑦⑧⑨|
口⑩⑪⑫ |⑩⑪⑫⑬|
15
⑦口④② |①-②-|
⑤口口口 |③-④-|
③⑤口口 |⑤---|
①口口⑥ |⑥-⑦-|
16
口②口④ |①-②-|
⑥口⑤③ |③---|
口⑦③① |④-⑤-|
口口口口 |⑥-⑦-|
17
③口口② |①---|
口口口口 |②-③-|
③口口②
口①①口

口⑤口口
口口口口
口口口口 |--④-|
④口⑤④ |--⑤-|
18
②口③口 |----|
口口①口 |①-②-|
口①口口 |--③-|
口③口② |----|
19
口口口① |①-②-|
①口②③ |③-④-|
③②④口
口④口口

⑤⑦口口
⑥口⑦口
口口口⑥ |⑤---|
口口口⑤ |⑥-⑦-|
20
③口口④ |①-②-|
⑥口⑤① |③---|
①⑦②口 |④-⑤-|
口②口③ |⑥-⑦-|
21
③⑤⑤② |①---|
⑤口口⑤ |②-③-|
③口口② |--④-|
④①①④ |--⑤-|
22
口口口口 |①---|
口②①口 |②---|
④口口③ |③---|
口⑤⑤口 |④-⑤-|
23
口口口⑦ |①②③-|
①②③⑦ |④⑤⑥-|
⑩⑥⑤④ |⑦-⑧⑨|
⑩⑧⑨口 |--⑩-|
24
⑩④①⑨ |①②③-|
②⑩⑨⑤ |④⑤⑥-|
⑧⑥③⑦ |⑦-⑧-|
口⑧⑦口 |⑨-⑩-|
25
口⑥口口 |①②③-|
④口⑦⑤ |④⑤⑥-|
⑧⑦③⑧ |⑦--⑧|
②⑨⑨① |--⑨-|
26
①⑨⑧④ |①②③-|
口②⑤口 |④⑤⑥-|
⑧⑥③⑨ |⑦--⑧|
⑦口口⑦ |--⑨-|
27
⑩⑧⑨⑦ |①②③-|
⑩④①⑦ |④⑤⑥-|
口②⑤口 |⑦-⑧⑨|
口⑥③口 |--⑩-|
28
⑧⑩⑦⑨ |①②③-|
⑩⑧⑨⑦ |④⑤⑥-|
口⑤②口 |⑦-⑧-|
④③⑥① |⑨-⑩-|
29
口口口口 |①②③-|
口口口口 |④⑤⑥-|
④⑤⑥口
口③②①

⑨⑩⑩⑦
口⑧⑧口
口口口口 |⑦-⑧-|
⑦口口⑨ |⑨-⑩-|
30
口口口口 |①②③-|
④⑧⑦① |④⑤⑥-|
口②⑤口 |⑦-⑧-|
⑩⑥③⑨ |⑨-⑩-|
31
②②②口 |①---|
口口口口 |----|
口口①① |②---|
口口口口 |----|
32
口口口口 |①---|
①①①① |--②-|
口③④⑥ |③-④-|
口⑤②口 |⑤-⑥-|
33
口②②② |①---|
①①口口 |----|
口口口口 |②---|
口口口口 |----|
34
口口口口 |①---|
口口口口 |----|
①①①①
口口口口

口口口口
口口②口
口③④口 |--②-|
口口口口 |③-④-|
35
③①口口 |①---|
口④口口 |②-③-|
①⑥⑤口 |--④-|
②口口口 |⑤-⑥-|
36
④口①③ |①---|
口⑥口口 |--②-|
口口口① |③-④-|
②口口⑤ |⑤-⑥-|
37
口①②口 |①---|
①口③② |----|
②③口① |②---|
口②①口 |--③-|
38
①⑤⑤② |①--②|
口④口口 |--③④|
口口③口 |⑤---|
②⑥⑥① |⑥---|
39
⑧口口⑦ |①②③④|
⑥口口⑤ |⑤⑥⑦⑧|
④口口③
②口口①
40
⑥④②⑥ |①-②-|
口口口口 |③-④-|
⑦③①⑦ |⑤-⑥-|
⑤口口⑤ |⑦---|
41
口②②口 |①-②-|
口口口口 |③---|
口③③口
口①①口

⑤口口⑤
⑦口口⑦
⑥口口⑥ |④-⑤-|
④⑦⑦④ |⑥-⑦-|
42
口口①⑦ |--①-|
口②③口 |②-③-|
口④⑤⑦ |④-⑤-|
口⑥口口 |⑥-⑦-|
43
③口口口 |--①-|
口①②口 |②-③-|
③④④口 |④---|
口④④口 |----|
44
⑤口口⑤ |①-②-|
⑦④②⑦ |③-④-|
③口口① |⑤-⑥-|
⑥口口⑥ |⑦---|
45
口①①口 |①-②-|
口③③口 |③---|
口口口口
口②②口

④⑦⑦④
⑥口口⑥
⑦口口⑦ |④-⑤-|
⑤口口⑤ |⑥-⑦-|
46
⑤⑦⑦⑥ |--①-|
⑦②④⑦ |②-③-|
口口口口 |④-⑤-|
口①③口 |⑥-⑦-|
47
④口口④ |--①-|
口④④口 |②-③-|
②②③③ |④---|
口口①① |----|
48
口⑤⑤口 |①-②-|
口口⑥口 |③-④-|
①⑦⑧④ |⑤-⑥⑦|
⑨③②口 |⑧-⑨-|
49
②口口① |①---|
口口③① |②---|
②③口口 |③---|
口口口口 |----|
50
②口口① |①-②-|
口⑥⑦口 |③-④-|
口口⑤口 |⑤-⑥⑦|
④⑧口③ |--⑧-|
51
口口口口 |①-②-|
④口口③ |③-④-|
口①口②
口口口口

⑤口口⑥
口口⑥口
口⑥口口 |⑤--⑥|
⑥口口口 |----|
52
口⑤⑤口 |①-②-|
口口⑥口 |③-④-|
①⑦⑧④ |⑤-⑥⑦|
⑨③②口 |⑧-⑨-|
53
②口口① |①---|
③口③① |②---|
②③口③ |③---|
口口口口 |----|
54
②口口① |①-②-|
口⑥⑦口 |③-④-|
口口⑤口 |⑤-⑥⑦|
④⑧口③ |--⑧-|
55
④口⑤⑤ |①-②-|
②④口③ |③-④-|
⑤②③① |⑤---|
⑤口①口 |----|
56
③口口④ |①-②-|
口③口口 |③-④-|
口②口口
口口①①

口⑦⑤口
⑤口⑥⑦
⑦口⑧⑤ |⑤-⑥-|
口⑤⑦口 |⑦-⑧-|
57
①口③② |①-②-|
④①口口 |③-④-|
口口口③
口口口口

⑦⑦口口
口口⑤⑤
⑤⑤⑧口 |⑤-⑥-|
口⑥⑦⑦ |⑦-⑧-|
58
口口③口 |①-②-|
口②口③ |③-④-|
④口口①
口口口口

口⑤口⑦
⑦⑧⑤口
口⑤⑥⑦ |⑤-⑥-|
⑦口⑤口 |⑦-⑧-|
59
①⑤⑤口 |①-②-|
⑤⑧口⑤ |③-④-|
③⑧⑦⑥ |⑤-⑥⑦|
口③④② |⑧---|
60
④口口③ |①-②-|
口口③口 |③-④-|
①口口口
①口口②

口⑦⑤口
⑤⑥口⑦
⑦口口⑤ |⑤-⑥-|
口⑤⑦⑧ |⑦-⑧-|
61
口口③① |①-②-|
④口口口 |③-④-|
口口①③
②口口口

⑦⑦口⑧
口口⑤⑤
⑤⑤口口 |⑤-⑥-|
口⑥⑦⑦ |⑦-⑧-|
62
口⑤①⑦ |①-②-|
⑦②⑤③ |③-④-|
④⑤③⑦ |⑤-⑥-|
⑦⑥⑤⑧ |⑦-⑧-|
63
②口口口 |①-②-|
⑤口③⑤ |③-④-|
⑤④①⑤ |⑤---|
口口③口 |----|
64
⑤①①② |①-②-|
③⑧⑦⑨ |③④-⑤|
③⑩④⑨ |⑥-⑦⑧|
⑫⑥⑥⑪ |⑨⑩⑪⑫|
65
⑤①①② |①-②-|
③⑧⑦⑨ |③④-⑤|
③⑩④⑨ |⑥-⑦⑧|
⑫⑥⑥⑪ |⑨⑩⑪⑫|

不確定度: 0

最終更新:2015年05月07日 16:08