Ignis Danse
Yuji Masubuchi「太鼓の達人」より

EXTREME

Level: 10
BPM: 246
Notes: 876

1
口口口口 |----|
口口口口 |----|
口口口口 |----|
口口口口 |----|
2
口⑥口口 |①---|
②口④③ |②---③-|
口⑤口口 |④---|
口口①口 |⑤---⑥-|
3
口口口口 |----|
口口口口 |①-②-③-|
口⑥⑤口 |④---|
④②①③ |⑤---⑥-|
4
④②①③ |----①-|
⑧⑥⑤⑦ |②-③-④-|
口口口口 |----⑤-|
口口口口 |⑥-⑦-⑧-|
5
口口口口 |----①-|
口口⑥口 |②-③-④-|
④②①③ |⑤---|
⑦⑦⑤口 |⑥---⑦-|
6
①口③② |----|
口口口⑤ |①---②-|
⑤⑤口④ |③---|
口口口口 |④---⑤-|
7
口口口口 |----|
⑥⑥⑤口 |①-②-③-|
口口⑥口 |④---|
④②①③ |⑤---⑥-|
8
③③口口 |----①-|
口口⑥口 |②---③-|
①口口② |----④-|
口⑤④口 |⑤---⑥-|
9
口口口口 |①-②-③-|
⑦③口④ |④-⑤-⑥-|
⑤①②⑥ |⑦---|
口口⑧⑧ |----⑧-|
10
⑤口口口 |----|
④口③② |①---②-|
口①口口 |③---|
口口口口 |④---⑤-|
11
口口口口 |----|
口口口口 |①-②-③-|
④②①③ |④---|
口⑥⑤口 |⑤---⑥-|
12
④②①③ |----①-|
⑧⑥⑤⑦ |②-③-④-|
口口口口 |----⑤-|
口口口口 |⑥-⑦-⑧-|
13
口口口口 |----①-|
口口⑥口 |②-③-④-|
④②①③ |⑤---|
⑦⑦⑤口 |⑥---⑦-|
14
口口口⑤ |----|
②③口④ |①---②-|
口口①口 |③---|
口口口口 |④---⑤-|
15
口⑥口口 |----|
⑥口口口 |①-②-③-|
口口⑤口 |④---|
④②①③ |⑤---⑥-|
16
④口②④ |----|
口④④② |①---②-|
口①口口 |----|
口③③口 |③---④-|
17
口口口口 |----|
口口口口 |----|
②口口口 |①---|
①口③口 |②---③-|
18
口⑤口口 |----|
①口③② |①---②-|
口④口口 |③---|
口口口口 |④---⑤-|
19
口口口口 |----|
口口口口 |①-②-③-|
口⑥⑤口 |④---|
④②①③ |⑤---⑥-|
20
④②①③ |----①-|
⑧⑥⑤⑦ |②-③-④-|
口口口口 |----⑤-|
口口口口 |⑥-⑦-⑧-|
21
口口口口 |----①-|
口口⑥口 |②-③-④-|
④②①③ |⑤---|
⑦⑦⑤口 |⑥---⑦-|
22
口口⑤口 |----|
②③口① |①---②-|
口口④口 |③---|
口口口口 |④---⑤-|
23
口⑥口口 |----|
⑥口口口 |①-②-③-|
口口口⑤ |④---|
④②①③ |⑤---⑥-|
24
④口②④ |----|
口④④② |①---②-|
①口口口 |----|
口③③口 |③---④-|
25
口口口口 |----|
口口口口 |----|
口口口口 |①---|
①口口② |②---|
26
口②口④ |①---|
①口③口 |②---|
口口口口 |③---|
口口口口 |④---|
27
①口口口 |①---|
口②口口 |----|
口口口口 |②---|
②口③② |③---|
28
口口①口 |①---|
口口④③ |②---|
①口②① |③---|
口口口口 |④---|
29
①③②① |①---|
口口口口 |②---|
③①口口 |③---|
口口④③ |④---|
30
③④口口 |①---|
①口④③ |②---|
④③②① |③---|
口①口口 |④---|
31
④口②① |①---|
②口口④ |②---|
口口口② |③---|
口②口③ |④---|
32
口①口口 |①---|
口②①口 |②---|
口③②口 |③---|
口⑥⑤④ |④-⑤-⑥-|
33
口口口口 |①---|
口口⑤口 |----|
②④③口 |②---|
①口口口 |③-④-⑤-|
34
口①③口 |①---|
①口口③ |②---|
④口口② |----③-|
口④②口 |----④-|
35
①口口③ |----|
口②口口 |①---|
口③①口 |②---|
口口口② |----③-|
36
口④②口 |----|
口口①③ |①---|
口口口⑤ |②---|
①②口口 |③-④-⑤-|
37
口口口口 |①-②-③-|
③①口口 |④-⑤-⑥-|
⑦⑤②口 |⑦---|
口口⑥④ |----|
38
口③①② |①---|
③③口口 |②---|
口口③口 |----|
①②口③ |③---|
39
②口②口 |----|
口口口② |----①-|
口②口口 |----|
口①①口 |②---|
40
口①口① |----①-|
②③①口 |----|
①口②③ |②---|
③②③② |----③-|
41
口口口口 |----|
口口口口 |----|
口口口口 |----|
口口口口 |----|
42
口口口口 |①-②-③-|
口口⑤口 |④---|
口口口口 |----|
④③②① |⑤---|
43
①②③④ |①-②-③-|
口⑤口口 |④---|
口口口口 |----|
口口口口 |⑤---|
44
口口口口 |----|
口口口口 |----|
口口口口 |①---|
口①口口 |----|
45
口⑤④口 |①-②-|
⑥口口③ |③-④-|
口⑦②口 |⑤-⑥-|
⑧口口① |⑦-⑧-|
46
④口口⑤ |①-②-|
口③⑥口 |③-④-|
②口口⑦ |⑤-⑥-|
口①⑧口 |⑦-⑧-|
47
口⑤④口 |①-②-|
⑥口口③ |③-④-|
口⑦②口 |⑤-⑥-|
⑧口口① |⑦-⑧-|
48
⑦口口⑦ |①②③-|
口⑥⑧⑥ |④-⑤-|
④口⑤⑤ |-⑥--|
口①②③ |⑦-⑧-|
49
口④⑤口 |①-②-|
③口口⑥ |③-④-|
口②⑦口 |⑤-⑥-|
①口口⑧ |⑦-⑧-|
50
⑤口口④ |①-②-|
口⑥③口 |③-④-|
⑦口口② |⑤-⑥-|
口⑧①口 |⑦-⑧-|
51
⑦④⑤口 |①-②-|
③⑧⑧⑥ |③-④-|
口②口口 |⑤-⑥-|
①口口口 |⑦---⑧-|
52
口口口口 |--①---|
口口口口 |②---|
口口①① |----|
②口口② |----|
53
口口口口 |----|
口口口口 |----|
口②口口 |----|
口口口① |①-②-|
54
口②③口 |①-②-|
④口口① |③-④-|
⑧口⑤口 |⑤-⑥-|
⑥口⑦口 |⑦-⑧-|
55
②口口③ |①-②-|
口④①口 |③-④-|
口⑧口⑤ |⑤-⑥-|
口⑥口⑦ |⑦-⑧-|
56
口②③口 |①-②-|
④口口① |③-④-|
口口⑤口 |⑤-⑥-|
⑥⑦⑧⑨ |⑦⑧⑨-|
57
④口口④ |①-②-|
口③⑤③ |-③--|
①口⑦② |④-⑤-|
⑥口口口 |⑥-⑦-|
58
口③②口 |①-②-|
①口口④ |③-④-|
口⑤口⑧ |⑤-⑥-|
口⑦口⑥ |⑦-⑧-|
59
③口口② |①-②-|
口①④口 |③-④-|
⑤口⑧口 |⑤-⑥-|
⑦口⑥口 |⑦-⑧-|
60
口③②口 |①-②-|
①⑤口④ |③-④-|
口口口⑥ |--⑤-|
口口口口 |⑥---|
61
⑥⑥口口 |①-②-|
口口口口 |③-④-|
②①口口 |⑤---|
④③口⑤ |--⑥-|
62
口口口口 |----|
③③口口 |①---|
口口②口 |②-③-|
口口①口 |----|
63
②②口口 |①---|
口口口口 |--②-|
口口口③ |----|
口口口① |③---|
64
口口口口 |①-②-|
②②口① |----|
⑥⑥口⑦ |③④⑤-|
③④⑤口 |⑥-⑦-|
65
口②②② |-①--|
口口①① |②---|
口口口口 |③---|
④④口③ |--④-|
66
口口口口 |----|
口口口③ |①-②-|
④④②① |③-④-|
口口口口 |----|
67
口口口① |①---|
口口④③ |--②-|
口口口口 |----|
②②口口 |③-④-|
68
③④⑤口 |①-②-|
⑥口口⑦ |----|
②②口① |③④⑤-|
口口口口 |⑥-⑦-|
69
口口④④ |-①--|
口口口口 |②---|
口口①① |③---|
③②②② |--④-|
70
④④口口 |----|
口②①口 |①-②-|
口口③口 |③-④-|
口口口⑤ |--⑤-|
71
口口口口 |①---|
口口口口 |②---|
③口④④ |③---|
①口②口 |④---|
72
③口④② |①---|
①口②④ |②---|
口口口口 |③---|
口口口口 |④---|
73
口⑨口⑩ |①②③④|
⑨口口口 |⑤⑥⑦⑧|
①②③④ |⑨---|
⑤⑥⑦⑧ |⑩---|
74
口口口口 |----|
口口口① |①---|
口口口② |----|
口口口口 |②---|
75
②③口口 |----|
口口口口 |①---|
口④④口 |②---③-|
②③①口 |----④-|
76
口口③② |----①-|
⑤④④① |②---③-|
口口口口 |----④-|
口口③② |----⑤-|
77
①口口口 |①---|
口口口口 |----②-|
③口口② |----|
①口口口 |③---|
78
⑩⑫⑦⑪ |①-②-③-|
②④口③ |④-⑤-⑥-|
口口⑤⑨ |⑦-⑧-⑨-|
⑥⑧口① |⑩-⑪-⑫-|
79
口口⑧口 |①-②-③-|
⑥口③⑦ |④-⑤-⑥-|
②④⑩口 |⑦---|
⑨口①⑤ |⑧-⑨-⑩-|
80
③⑤口② |①-②-③-|
口口⑥⑧ |④-⑤-⑥-|
口⑦口④ |⑦---|
口①口⑧ |⑧---|
81
②口④口 |①---|
②口口口 |②---③-|
口口①③ |----|
口口口口 |④---|
82
口⑥⑫⑪ |①-②-③-|
口⑤④③ |④-⑤-⑥-|
②⑩口口 |⑦-⑧-⑨-|
①⑨⑧⑦ |⑩-⑪-⑫-|
83
②口口口 |①-②-③-|
①口口⑦ |④-⑤-⑥-|
⑥⑩④③ |⑦---|
⑤口⑨⑧ |⑧-⑨-⑩-|
84
口④③② |①-②-③-|
口⑤⑪⑩ |④-⑤-⑥-|
⑧口⑦⑥ |⑦-⑧-⑨-|
⑨①口口 |⑩-⑪---|
85
①④口口 |①---②-|
①④口口 |③---④-|
口口⑤口 |----|
口口③② |⑤---|
86
⑪⑦⑫⑩ |①-②-③-|
③口④② |④-⑤-⑥-|
⑨⑤口口 |⑦-⑧-⑨-|
①口⑧⑥ |⑩-⑪-⑫-|
87
口⑧口口 |①-②-③-|
⑦③口⑥ |④-⑤-⑥-|
口⑩④② |⑦---|
⑤①口⑨ |⑧-⑨-⑩-|
88
②口⑤③ |①-②-③-|
⑧⑥口口 |④-⑤-⑥-|
④口⑦口 |⑦---|
⑧口①口 |⑧---|
89
口④口② |①---|
口口口② |②---③-|
③①口口 |----|
口口口口 |④---|
90
⑪⑫⑥口 |①-②-③-|
③④⑤口 |④-⑤-⑥-|
口口⑩② |⑦-⑧-⑨-|
⑦⑧⑨① |⑩-⑪-⑫-|
91
口口⑩② |①-②-③-|
⑦⑧⑨① |④-⑤-⑥-|
③④⑪⑥ |⑦-⑧-⑨-|
口口口⑤ |⑩---⑪-|
92
⑦口口④ |①-②-③-|
口口口⑤ |④-⑤-⑥-|
口⑥口口 |----|
③②①口 |⑦---|
93
口口③口 |①---|
①口口口 |②---③-|
②口口口 |----|
口口口③ |----|
94
口口口口 |----|
口②①口 |①---②-|
口①②口 |----|
口口口口 |----|
95
口①口② |①---|
口口口口 |----|
口口口口 |----|
①口口口 |----②-|
96
⑥②①口 |①-②-③-|
⑦⑤④③ |④-⑤-⑥-|
⑧⑪⑩⑨ |⑦-⑧-⑨-|
口口口⑫ |⑩-⑪-⑫-|
97
⑨⑤④③ |①-②-③-|
⑩⑧⑦⑥ |④-⑤-⑥-|
⑪口口⑫ |⑦-⑧-⑨-|
口②①口 |⑩-⑪-⑫-|
98
⑫⑧⑦⑥ |①-②-③-|
口⑪⑩⑨ |④-⑤-⑥-|
口②①口 |⑦-⑧-⑨-|
口⑤④③ |⑩-⑪-⑫-|
99
口④③② |①---|
①口口⑤ |----|
口口口⑥ |②-③-④-|
口口口⑦ |⑤-⑥-⑦-|
100
⑫⑪⑩口 |①-②-③-|
⑨⑧⑦口 |④-⑤-⑥-|
⑥⑤④口 |⑦-⑧-⑨-|
①②③口 |⑩-⑪-⑫-|
101
口口口① |①---|
口③口口 |----②-|
③口口口 |----|
口口口② |③---|
102
口口口口 |----|
口口口① |----①-|
口口①口 |②---|
②口口口 |----|
103
口口④② |----|
⑤口口⑥ |①---|
口⑦口口 |②-③-④-|
③①①口 |⑤-⑥-⑦-|
104
⑥②口⑪ |①-②-③-|
口⑩①口 |④-⑤-⑥-|
④口⑤③ |⑦-⑧-⑨-|
⑫⑧⑨⑦ |⑩-⑪-⑫-|
105
口口①口 |①---|
口口②口 |----|
③口口口 |②---|
口口③口 |③---|
106
口口口口 |----|
③口口口 |①---|
口②③① |②---|
口①口② |----③-|
107
口①口② |----①-|
口②口① |----②-|
口口口口 |----|
口③口口 |③---|
108
⑫⑧口口 |①-②-③-|
④口⑪⑨ |④-⑤-⑥-|
⑩⑥⑦⑤ |⑦-⑧-⑨-|
②口③① |⑩-⑪-⑫-|
109
口口③① |①-②-③-|
⑤口口口 |----④-|
口口口④ |----|
口②④口 |⑤---|
110
口口口③ |①---|
口口口④ |②---|
①口口口 |③---|
②口口口 |④---|
111
④口③口 |①---|
口口口口 |②---|
口口口① |③---|
③口④② |----④-|
112
口口口① |----|
口口①口 |①---|
①①口口 |----|
口①口口 |----|
113
口口口口 |----|
②口口③ |----①-|
口口口口 |----|
口①①口 |②---③-|
114
③③口口 |①---|
口口①口 |②---③-|
②②口口 |----|
口⑤④⑥ |④-⑤-⑥-|
115
⑦⑤④⑥ |①---|
口口口口 |②---③-|
③③②② |----④-|
①口口口 |⑤-⑥-⑦-|
116
口口口口 |----①-|
④②①③ |②-③-④-|
⑧⑥⑤⑦ |----⑤-|
口口口口 |⑥-⑦-⑧-|
117
口口②② |①---|
⑤口口④ |②---③-|
口口口口 |----|
③③①① |④---⑤-|
118
口口口口 |①---|
口①③口 |②---③-|
口口②口 |----|
口⑤④⑥ |④-⑤-⑥-|
119
口⑤③口 |①---|
⑤口口③ |②---③-|
口②④口 |----|
①口口口 |④---⑤-|
120
⑥口口③ |----①-|
口⑥③口 |②---③-|
口口口口 |----④-|
①②⑤④ |⑤---⑥-|
121
口⑥③口 |----①-|
⑥口口③ |②---③-|
①②⑤④ |----④-|
口口口口 |⑤---⑥-|
122
①口口口 |----|
口①口口 |①---②-|
⑧⑦口⑥ |③-④-⑤-|
⑤④③② |⑥-⑦-⑧-|
123
⑤④⑥③ |①-②-③-|
②⑥①⑥ |④-⑤-⑥-|
口口⑥口 |----|
口口口口 |----|

不確定度: 0

最終更新:2015年05月07日 16:08