アイネクライネ
→Pia-no-jaC←

BASIC

Level: 3
BPM: 105
Notes: 293

全程BPM在105附近飄忽不定
1
口口口口 |----|
口口口口 |----|
口口口口 |----|
口口口口 |----|
2
①②③④ |①---|
口口口口 |②---|
口口口口 |③---|
口口口口 |④---|
3
口口口口 |①---|
①②③④ |②---|
口口口口 |③---|
口口口口 |④---|
4
口口口口 |①---|
口口口口 |②---|
①②③④ |③---|
口口口口 |④---|
5
口口口口 |①---|
口口口口 |②---|
口口口口 |③---|
①②③④ |④---|
6
①②③④ |①---|
口口口口 |②---|
口口口口 |③---|
口口口口 |④---|
7
口口口口 |①---|
①②③④ |②---|
口口口口 |③---|
口口口口 |④---|
8
口④④口 |①---|
口③③口 |②---|
口②②口 |③---|
口①①口 |④---|
9
④口口④ |①---|
③口口③ |②---|
②口口② |③---|
①口口① |④---|
10
口④④口 |①---|
口③③口 |②---|
口②②口 |③---|
口①①口 |④---|
11
口口口口 |①---|
①①①① |----|
口口口口 |----|
口口口口 |----|
12
口⑤口口 |①---|
口口④口 |②---|
口③口口 |③-④-|
①口口② |⑤---|
13
①③口② |①---|
口口④口 |②---|
口⑤口口 |③-④-|
口口口口 |⑤---|
14
口口⑤口 |①---|
口④口口 |②---|
口口③口 |③-④-|
②口口① |⑤---|
15
①③口② |①---|
口口④口 |②---|
口⑤口口 |③-④-|
口口口口 |⑤---|
16
口④口口 |①---|
口③口口 |②---|
②口口口 |③---|
①口口口 |④---|
17
口口口口 |①---|
口口口口 |②---|
口口口② |----|
口口口① |----|
18
④口口口 |①---|
③口口口 |②---|
口②口口 |③---|
口①口口 |④---|
19
口口口口 |①---|
口①①口 |----|
口口口口 |----|
口口口口 |----|
20
口④口口 |①---|
口③口口 |②---|
②口口口 |③---|
①口口口 |④---|
21
口口口口 |①---|
口口口口 |②---|
口口口② |----|
口口口① |----|
22
④口口口 |①---|
③口口口 |②---|
口②口口 |③---|
口①口口 |④---|
23
口口口口 |①---|
口①①口 |----|
口口口口 |----|
口口口口 |----|
24
口口口口 |①---|
①①①① |----|
口口②口 |----|
口口口口 |--②-|
25
口口口口 |①---|
①①①① |----|
口②口口 |----|
口口口口 |--②---|
26
口口口口 |①---|
①①①① |----|
口口②口 |----|
口口口口 |--②-|
27
②②②② |①---|
①①①① |----|
口③口口 |②---|
口口口口 |--③---|
28
⑦口口⑧ |①-②-|
⑤口口⑥ |③-④-|
③口口④ |⑤-⑥-|
①口口② |⑦-⑧-|
29
口⑦⑧口 |①-②-|
口⑤⑥口 |③-④-|
口③④口 |⑤-⑥-|
口①②口 |⑦-⑧-|
30
⑦口口⑧ |①-②-|
⑤口口⑥ |③-④-|
③口口④ |⑤-⑥-|
①口口② |⑦-⑧-|
31
⑥④④⑥ |①-②-|
口③③口 |③-④-|
⑤②②⑤ |--⑤---|
口①①口 |⑥---|
32
口口口口 |①-②-|
①②③④ |③-④-|
口⑤⑥口 |⑤-⑥-|
口⑦⑧口 |⑦-⑧-|
33
④⑤⑥⑦ |①-②-|
③口口口 |③-④-|
②口口口 |⑤-⑥-|
①口口口 |⑦---|
34
口⑧⑦口 |①-②-|
口⑥⑤口 |③-④-|
口④③口 |⑤-⑥-|
口②①口 |⑦-⑧-|
35
⑦⑥⑤④ |①-②-|
口口口③ |③-④-|
口口口② |⑤-⑥-|
口口口① |⑦---|
36
口口口① |①-②-|
口口②口 |③-④-|
口③口口 |⑤---|
④⑤⑤口 |----|
37
①口口口 |①-②-|
口②口口 |③-④-|
口口③口 |⑤---|
口⑤⑤④ |----|
38
口⑤⑤④ |①-②-|
口口③口 |③-④-|
口②口口 |⑤---|
①口口口 |----|
39
④⑤⑤口 |①-②-|
口③口口 |③-④-|
口口②口 |⑤---|
口口口① |----|
40
口口⑦口 |①-②-|
④⑥②口 |③-④-|
⑤③口① |⑤-⑥-|
口口口口 |⑦---|
41
口⑦⑧口 |①-②-|
口②⑥④ |③-④-|
①口③⑤ |⑤-⑥-|
口口口口 |⑦-⑧-|
42
⑦口口口 |①-②-|
①⑥③口 |③-④-|
口②⑤④ |⑤-⑥-|
口口口口 |⑦---|
43
口口口⑦ |①-②-|
口③⑥① |③-④-|
④⑤②口 |⑤-⑥-|
口口口口 |⑦---|
44
口口⑦口 |①-②-|
④⑥②口 |③-④-|
⑤③口① |⑤-⑥-|
口口口口 |⑦---|
45
口⑦⑧口 |①-②-|
口②⑥④ |③-④-|
①口③⑤ |⑤-⑥-|
口口口口 |⑦-⑧-|
46
⑦口⑧口 |①-②-|
①⑥③口 |③-④-|
口②⑤④ |⑤-⑥-|
口口口口 |⑦-⑧-|
47
口口口⑦ |①-②-|
口③⑥① |③-④-|
④⑤②口 |⑤-⑥-|
口口口口 |⑦---|
48
口口口口 |①-②-|
口①④口 |③---|
口⑤②口 |④-⑤-|
⑥口口③ |⑥---|
49
口①①口 |①---|
③口口③ |②---|
口②②口 |③---|
④口口④ |④---|
50
①口口① |①---|
口③③口 |②---|
②⑤⑤② |③---|
口④④口 |④--⑤|

不確定度: 0

最終更新:2016年06月14日 02:27