アイネクライネ
→Pia-no-jaC←

ADVANCED

Level: 8
BPM: 105
Notes: 569

全程BPM在105附近飄忽不定
1
口口口口 |----|
口口口口 |----|
口口口口 |----|
口口口口 |----|
2
①②口口 |①-②-|
口口口③ |--③-|
④⑥口口 |④----⑤|
口口⑤口 |--⑥-|
3
口口②① |①-②-|
③口口口 |--③-|
口口⑥④ |④----⑤|
口⑤口口 |--⑥-|
4
①②③④ |①②③④⑤⑥|
⑤⑥⑦⑧ |⑦⑧⑨⑩⑪⑫|
⑨⑩⑪⑫
口口口口

口⑰⑱口
口口口口
口口口口 |⑬⑭⑮⑯⑰⑱|
⑬⑭⑮⑯ |----|
5
口口口口 |①---|
口①①口 |----|
口①①口
口口口口

口口口口
口口口口
口②口口 |----|
口口口口 |--②-|
6
④③②① |①②③④⑤⑥|
⑧⑦⑥⑤ |⑦⑧⑨⑩⑪⑫|
⑫⑪⑩⑨
口口口口

口口口⑰
口口口口
口口口口 |⑬⑭⑮⑯--|
⑯⑮⑭⑬ |--⑰-|
7
口口口口 |①---|
口①①口 |----|
口①①口
口口口口

口口口口
⑩⑪⑫⑬
⑥⑦⑧⑨ |②③④⑤⑥⑦|
②③④⑤ |⑧⑨⑩⑪⑫⑬|
8
①①②② |①-②-|
④口口④ |--③---|
口③③口 |④----⑤|
⑤口口⑤ |----|
9
①①②② |①-②-|
④口口④ |--③---|
口③③口 |④----⑤|
⑤口口⑤ |----|
10
①①②② |①-②-|
④口口④ |--③---|
口③③口 |④----⑤|
⑤口口⑤ |----|
11
②口口③ |①---|
口①①口 |----|
④①①口 |②----③|
口口口口 |---④---|
12
口①①口 |①----②|
⑧②③⑨ |③----④|
⑥口⑩⑦ |⑤-⑥⑦-⑧|
④口口⑤ |⑨-⑩-|
13
④①①⑤ |①----②|
⑥②③⑦ |③----④|
⑧口⑩⑨ |⑤-⑥⑦-⑧|
口口口口 |⑨-⑩-|
14
口①①口 |①----②|
⑧②③⑨ |③----④|
⑥口⑩⑦ |⑤-⑥⑦-⑧|
④口口⑤ |⑨-⑩-|
15
④①①⑤ |①----②|
⑥②③⑦ |③----④|
⑧口口⑨ |⑤-⑥⑦-⑧|
口⑩口口 |⑨-⑩-|
16
④②③⑥ |①-②③-④|
口口①口 |--⑤--⑥|
口口口口
⑤口口口

口⑧⑨口
口口口口
口口口口 |--⑦--⑧|
口⑩口⑦ |⑨-⑩-|
17
④口口口 |①-②③-④|
口②③口 |----|
口口①口 |----|
口口口口 |----|
18
⑩口口口 |①-②③-④|
④⑧⑨⑥ |--⑤--⑥|
口②③口 |--⑦--⑧|
⑤口①⑦ |⑨-⑩-|
19
口口口③ |①--②-③|
口口口口 |----|
口②口口 |----|
口口①口 |----|
20
④②③⑥ |①-②③-④|
口口①口 |--⑤--⑥|
口口口口
⑤口口口

口⑧⑨口
口口口口
口口口口 |--⑦--⑧|
口⑩口⑦ |⑨-⑩-|
21
④口口口 |①-②③-④|
口②③口 |----|
口口①口 |----|
口口口口 |----|
22
⑩口口口 |①-②③-④|
④⑧⑨⑥ |--⑤--⑥|
口②③口 |--⑦--⑧|
⑤口①⑦ |⑨-⑩-|
23
口口口口 |①---|
口口口口 |----|
口口口口 |----|
口口①口 |----|
24
②口口③ |①-②③-④|
④口口⑤ |⑤-⑥⑦-⑧|
⑥①①⑦
⑧口口口

口⑩⑪口
口⑫⑬口
口⑭⑮口 |⑨-⑩⑪-⑫|
口口口⑨ |⑬-⑭⑮--|
25
口②③口 |①-②③-④|
口④⑤口 |⑤-⑥⑦-⑧|
①⑥⑦①
口⑧口口

⑩⑬⑬⑪
⑫口口口
口口口口 |⑨-⑩⑪-⑫|
口口⑨口 |--⑬---|
26
②口口③ |①-②③-④|
④口口⑤ |⑤-⑥⑦-⑧|
⑥①①⑦
⑧口口口

口⑩⑪口
口⑫⑬口
口⑭⑮口 |⑨-⑩⑪-⑫|
口口口⑨ |⑬-⑭⑮--|
27
口②③口 |①-②③-④|
口④⑤口 |⑤-⑥⑦-⑧|
①⑥⑦①
口⑧口口

口口口口
⑨口口⑨
口⑩⑩口 |⑨---|
口口口口 |--⑩---|
28
①口口① |①-②③-④|
⑥②③⑤ |⑤-⑥⑦-⑧|
口⑧口口
④口口⑦

⑭⑩⑨口
口口口⑬
⑫⑯⑪⑮ |⑨-⑩⑪-⑫|
口口口口 |⑬-⑭⑮-⑯|
29
口口①口 |①-②③-④|
⑥②③⑤ |⑤-⑥⑦-⑧|
口⑧口口
④口口⑦

口⑩⑨口
口口口口
⑫口⑪口 |⑨-⑩⑪-⑫|
口⑬⑬口 |--⑬---|
30
①口口① |①-②③-④|
⑥②③⑤ |⑤-⑥⑦-⑧|
口⑧口口
④口口⑦

⑭⑩⑨口
口口口⑬
⑫⑯⑪⑮ |⑨-⑩⑪-⑫|
口口口口 |⑬-⑭⑮-⑯|
31
口口③③ |①-②③-④|
⑥②⑤⑤ |⑤-⑥⑦-⑧|
④口⑦⑦
口⑧①①

⑩口口⑩
口口口口
口⑪口口 |--⑨---|
⑨口口⑨ |⑩-⑪-|
32
⑦②口口 |①-②---|
口口⑥③ |③-④-|
①口④① |⑤-⑥--⑦|
口⑤口口

口口口口
口口口口
口口口口
口⑨口⑧ |---⑧-⑨|
33
口③②① |①②③④⑤⑥|
口⑥⑤④ |⑦⑧⑨⑩⑪⑫|
口⑨⑧⑦
口⑫⑪⑩

口口口⑬
⑭⑮⑮口
口口口口 |⑬-⑭--⑮|
口口口口 |----|
34
⑥①口⑧ |--①---|
口口⑤② |②-③-|
⑦口③口 |④-⑤--⑥|
口④口口 |--⑦--⑧|
35
口⑩⑪⑫ |①②③④⑤⑥|
口⑦⑧⑨ |⑦⑧⑨⑩⑪⑫|
口④⑤⑥
口①②③

口口口口
口口口口
口⑮口⑯ |⑬-⑭⑮-⑯|
⑬口⑭口 |----|
36
③③口口 |①---|
口口口口 |--②--③|
口口①口
②②口①

口口口口
口⑥口口
口④⑤口 |----|
口口口口 |--④⑤-⑥|
37
③③①口 |①---|
口⑥口① |--②--③|
口④⑤口 |----|
②②口口 |--④⑤-⑥|
38
口③口口 |①---|
③⑥口口 |--②--③|
②④⑤① |----|
口②①口 |--④⑤-⑥|
39
③口①口 |①---|
口③口① |--②--③|
口②口口
②口口口

口④④④
口口口口
口口口口 |----|
口口口口 |④---|
40
⑧口口口 |①-②③-④|
⑥⑦口① |⑤-⑥⑦-⑧|
④⑤口①
②③口口

口⑨⑫⑫
⑬口口口
⑬口口口 |⑨-⑩⑪-⑫|
⑩⑪口口 |-----⑬|
41
口口口⑦ |--①②-③|
口口⑥⑤ |④-⑤⑥-⑦|
口口④③
口口②①

口⑪⑧口
口口口口
⑩口口⑫ |⑧-⑨--⑩|
口口口⑨ |--⑪--⑫|
42
⑦口口口 |--①②-③|
⑤⑥口口 |④-⑤⑥-⑦|
③④口口
①②口口

口⑧口⑪
⑫口口口
⑫口口口 |⑧-⑨⑩-⑪|
⑨⑩口口 |-----⑫|
43
口口口⑦ |--①②-③|
口口⑥⑤ |④-⑤⑥-⑦|
口口④③
口口②①

⑩口⑧口
⑩口口口
口口口口 |⑧-⑨--⑩|
口口口⑨ |----|
44
⑧口口口 |①-②③-④|
⑥⑦口① |⑤-⑥⑦-⑧|
④⑤口①
②③口口

口⑨⑫⑫
⑬口口口
⑬口口口 |⑨-⑩⑪-⑫|
⑩⑪口口 |-----⑬|
45
口口口⑦ |--①②-③|
口口⑥⑤ |④-⑤⑥-⑦|
口口④③
口口②①

口⑬⑧口
口⑪⑫口
⑩口口口 |⑧-⑨--⑩|
口口口⑨ |--⑪⑫-⑬|
46
⑧口①口 |①-②③-④|
⑥⑦口口 |⑤-⑥⑦-⑧|
④⑤口口
②③口口

口⑨口⑫
⑭⑬⑬口
⑭口口口 |⑨-⑩⑪-⑫|
⑩⑪口口 |--⑬--⑭|
47
口口口⑦ |--①②-③|
口口⑥⑤ |④-⑤⑥-⑦|
口口④③
口口②①

⑪口⑧口
⑪口口口
口口口口 |⑧-⑨⑩-⑪|
口口⑩⑨ |----|
48
④④①① |①-②--③|
口口口口 |----|
⑤⑤②② |④-⑤--⑥|
⑥⑥③③ |----|
49
①⑤⑤① |①-②-|
②口口② |③-④--⑤|
③口口③
口④④口

⑨口口⑨
口⑥⑥口
口⑦⑦口 |--⑥-|
⑧口口⑧ |⑦-⑧--⑨|
50
口④④口 |--①-|
①口口① |②-③--④|
②口口②
口③③口

⑧⑧⑧⑧
口⑤⑤口
口⑥⑥口 |--⑤-|
⑦口口⑦ |⑥---⑦----⑧--|

不確定度: 0

最終更新:2016年06月14日 02:26