アイネクライネ
→Pia-no-jaC←

EXTREME

Level: 10
BPM: 105
Notes: 820

全程BPM在105附近飄忽不定
1
口口口口 |----|
口口口口 |----|
口口口口 |----|
口口口口 |----|
2
口口口口 |①-②-|
⑤口口① |--③④--|
⑦⑧④③ |⑤----⑥|
⑥口口② |--⑦⑧--|
3
⑨口口口 |①-②-|
⑤口口① |--③④--|
⑦⑧④③ |⑤----⑥|
⑥口口② |--⑦⑧-⑨|
4
口口②① |①②③④⑤⑥|
⑩⑨④③ |⑦⑧⑨⑩⑪⑫|
⑫⑪⑥⑤
口口⑧⑦

口口口口
口口⑯⑮
口口⑱⑰ |⑬⑭⑮⑯⑰⑱|
⑭⑬口口 |----|
5
①①①① |①②③④⑤⑥⑦-|
②口口口 |--⑧⑨--|
③⑧⑨口
④⑤⑥⑦

口口⑭⑩
口口口口
口口口⑪ |⑩----⑪|
口口⑬⑫ |--⑫⑬-⑭|
6
①②口口 |①②③④⑤⑥|
③④⑨⑩ |⑦⑧⑨⑩⑪⑫|
⑤⑥⑪⑫
⑦⑧口口

口口口口
⑮⑯⑰口
口⑰口口 |⑬⑭⑮⑯--|
口口⑬⑭ |--⑰-|
7
①①①① |①②③④⑤⑥⑦-|
口口口② |----|
口口口③
⑦⑥⑤④

⑧⑨⑩⑪
⑫⑬⑭⑮
⑯⑰⑱⑲ |⑧⑨⑩⑪⑫⑬⑭⑮|
⑳ⒶⒷⒸ |⑯⑰⑱⑲⑳ⒶⒷⒸ|
8
①⑤⑥② |①-②-|
⑤④③⑥ |--③④--|
口③口口 |⑤----⑥|
⑥⑦⑧⑤ |--⑦⑧--|
9
②⑥⑤① |①-②-|
⑥③④⑤ |--③④--|
口口③口 |⑤----⑥|
⑤⑧⑦⑥ |--⑦⑧--|
10
①⑤⑥② |①-②-|
⑤④③⑥ |--③④--|
口③口口 |⑤----⑥|
⑥⑦⑧⑤ |--⑦⑧--|
11
口口③② |①-②-|
口①①口 |③-④⑤⑥⑦|
口①①口
④⑤⑥⑦

口⑩⑪口
⑧口口⑨
⑧口口⑨ |⑧----⑨|
口口口口 |--⑩⑪---|
12
①口口口 |①----②|
③①口口 |③----④|
①③口口
口口④②

⑦⑨⑩⑩
⑨⑦口⑥
口口⑤⑧ |⑤-⑥⑦-⑧|
口⑤口口 |⑨-⑩-|
13
口口口口 |①----②|
口口口② |③----④|
①③口④
③①口①

⑤口口⑥
⑨⑤⑧⑩
口⑨⑦口 |⑤-⑥⑦-⑧|
口⑦⑩口 |⑨-⑩-|
14
①口①口 |①----②|
③①口口 |③----④|
①③口口
口口④②

⑦⑨⑩⑩
⑨⑦口⑥
口口⑤⑧ |⑤-⑥⑦-⑧|
口⑤口口 |⑨-⑩-|
15
口口口口 |①----②|
口口口② |③----④|
①③口④
③①口①

⑤口口⑥
⑨⑤⑧⑩
口⑨⑦口 |⑤-⑥⑦-⑧|
⑪⑦口口 |⑨-⑩⑪--|
16
⑥③②④ |①-②③-④|
口口⑤口 |--⑤--⑥|
口⑥④口
口口①⑤

口⑧⑨口
口⑦口口
口口口口 |--⑦--⑧|
⑦⑩⑩口 |⑨-⑩-|
17
口口口⑤ |①-②③-④|
①口口① |--⑤-|
口②③口
④口口④

口口口⑧
口口⑦口
口口口口 |⑥----⑦|
口口⑥口 |--⑧-|
18
口④⑥口 |①-②③-④|
⑤口口口 |--⑤--⑥|
④②③⑥
①⑤口口

⑨⑩口⑧
口口口⑦
口口口口 |--⑦--⑧|
口口⑦口 |⑨-⑩-|
19
口口④③ |①--②-③|
口②⑥⑤ |④⑤⑥⑦⑧⑨|
口口⑧⑦ |⑩---|
①口⑩⑨ |----|
20
⑥③②④ |①-②③-④|
口口⑤口 |--⑤--⑥|
口⑥④口
口口①⑤

口⑧⑨口
口⑦口口
口口口口 |--⑦--⑧|
⑦⑩⑩口 |⑨-⑩-|
21
口口口⑤ |①-②③-④|
①口口① |--⑤-|
口②③口
④口口④

口口口⑧
口口⑦口
口口口口 |⑥----⑦|
口口⑥口 |--⑧-|
22
口④⑥口 |①-②③-④|
⑤口口口 |--⑤--⑥|
④②③⑥
①⑤口口

⑨口口⑧
口口⑩⑦
口口⑩口 |--⑦--⑧|
口口⑦口 |⑨-⑩-|
23
口①①③ |①----②|
口口口口 |--③-|
口②口口
口口口口

口口口⑥
口口⑤口
口口口口 |④----⑤|
口口口④ |--⑥-|
24
②③口口 |①-②③-④|
口口口④
口①口①
口口①口

口口口口
口口⑤口 |⑤-⑥⑦-⑧|
口口口⑧
⑥⑦口口

⑬⑭⑮⑯
⑩⑪口⑫
口⑰⑨口 |⑨-⑩⑪-⑫|
⑰口口口 |⑬⑭⑮⑯⑰---|
25
口口⑦⑥ |①-②③-④|
④⑤①口 |⑤-⑥⑦-⑧|
①口③②
⑧①口口

口口口口
⑬口⑪⑩
⑫⑬⑬口 |⑨-⑩⑪-⑫|
口⑨口⑬ |--⑬---|
26
②③口口 |①-②③-④|
口①口④
口口口①
口口①口

口口口口
口口⑤口 |⑤-⑥⑦-⑧|
口口口⑧
⑥⑦口口

⑬⑭⑮⑯
⑩⑪口⑫
口⑰⑨口 |⑨-⑩⑪-⑫|
⑰口口口 |⑬⑭⑮⑯⑰---|
27
⑥⑦口⑧ |①-②③-④|
②③口口 |⑤-⑥⑦-⑧|
①口①口
口①⑤④

口口口口
⑪⑫⑫⑩
⑫⑨⑨⑫ |⑨--⑩-⑪|
⑩⑫⑫⑪ |--⑫---|
28
①⑦口① |①-②③-④|
⑥口口④ |⑤-⑥⑦-⑧|
口③⑤⑧
②口口口

⑩口口⑫
⑰⑪⑨口
⑰口口⑱ |⑨-⑩⑪-⑫|
⑬⑭⑮⑯ |⑬--⑭--⑮--⑯--⑰-------⑱---|
29
④①③口 |①-②③-④|
口⑤口② |⑤-⑥⑦-⑧|
口①⑦口
⑧口口⑥

口⑫⑫口
⑬口⑬口
口⑨口⑩ |⑨-⑩⑪-⑫|
口⑬⑪⑬ |--⑬---|
30
①⑦口① |①-②③-④|
⑥口口④ |⑤-⑥⑦-⑧|
口③⑤⑧
②口口口

⑩口口⑫
⑰⑪⑨口
⑰口口⑱ |⑨-⑩⑪-⑫|
⑬⑭⑮⑯ |⑬--⑭--⑮--⑯--⑰-------⑱---|
31
④⑤①口 |①②③④⑤⑥|
口⑥②③ |⑦⑧⑨⑩⑪⑫|
⑪⑩⑦口
⑫口⑧⑨

口⑭口⑭
⑬⑮⑮口
口口⑭⑬ |--⑬---|
口⑬口口 |⑭-⑮-|
32
②③②③ |①-②---|
口口口口 |③-④-|
④口④口
口口口①

⑦口⑦口
口⑥口⑥
⑨⑧口口 |⑤-⑥--⑦|
⑩⑤口⑤ |---⑧⑨⑩|
33
口④⑧⑦ |①②③④⑤⑥|
⑥⑤⑨口 |⑦⑧⑨⑩⑪⑫|
⑪⑩口①
⑫口③②

⑭口口口
⑯口口口
⑰口口⑬ |⑬--⑭--⑮---⑯-|
口⑯⑮⑮ |--⑰-|
34
口②口② |①-②---|
③口③口 |③-④-|
口口口①
口④口④

⑦口⑦⑩
口⑥口⑥
⑧⑨口口 |⑤-⑥--⑦|
⑤口⑤口 |--⑧⑨-⑩|
35
口①口口 |①②③④⑤⑥|
③②⑪⑩ |⑦⑧⑨⑩⑪⑫|
⑧⑨⑫④
⑦口⑥⑤

⑮口⑯⑭
口⑯口口
口口口口 |⑬-⑭⑮-⑯|
口⑬口⑰ |--⑰-|
36
⑤口口⑤ |①-②-|
③④①口 |③-④--⑤|
①⑤②④
口①④口

口口⑨口
口口口⑨
⑥口⑦口 |--⑥-|
⑧口口⑩ |⑦-⑧⑨-⑩|
37
口①口口 |①-②-|
①口口口
口②口口
口口口口

口⑤口口
⑤口口⑤ |③-④--⑤|
④口③④
口口④口

口口口口
口⑨⑥口
⑨⑩口口 |--⑥-|
⑦口⑧口 |⑦-⑧⑨-⑩|
38
口口①口 |①-②-|
口口口①
口口口口
口②口口

⑤口口④
④口③⑤ |③-④--⑤|
口⑤④口
④口口⑤

口⑥⑦⑨
口⑩⑨口
口口口口 |--⑥-|
⑧口口口 |⑦-⑧⑨-⑩|
39
口口口口 |①-②-|
口口口口
口口口①
口口①②

⑤口④口
④⑤口⑤ |③-④--⑤|
口③④口
口④⑤口

口⑥口⑥
口口⑥口
口⑥口口 |----|
口口口口 |⑥---|
40
①⑧⑥口 |①-②③-④|
④①口② |⑤-⑥⑦-⑧|
口口⑦口
⑤口口③

口口口⑫
口口⑫口
⑪⑨口口 |⑨-⑩⑪-⑫|
口口口⑩

口口口口
口口口口
口⑬⑬口
口口口口 |-----⑬|
41
⑦口口口 |--①②-③|
①口⑥③ |④-⑤⑥-⑦|
口口口口
②⑤口④

口口⑧⑧
⑩⑩⑫口
口⑫⑨⑨ |⑧-⑨--⑩|
⑪⑪口口 |--⑪--⑫|
42
①口口③ |--①②-③|
口⑤⑦口 |④-⑤⑥-⑦|
②口口④
口⑥口口

口⑪⑭⑭
⑪口口⑭
口⑬⑩⑫ |⑧-⑨⑩-⑪|
⑨口⑧口 |--⑫⑬-⑭|
43
④④口口 |--①②-③|
口①⑤口 |④-⑤⑥-⑦|
口⑥③口
口口⑦②

⑩⑩⑩⑭
口⑨口⑬
⑧口口⑫ |⑧-⑨--⑩|
口口口⑪ |--⑪⑫⑬⑭--|
44
口⑧口口 |①-②③-④|
①⑥①⑦ |⑤-⑥⑦-⑧|
②③③⑦
④⑤⑤口

⑫口⑨⑨
口口口口
⑩⑪⑪口 |⑨-⑩⑪-⑫|
口口口口

口口⑬口
口口口⑬
口口口口
口口口口 |-----⑬|
45
③⑦口④ |--①②-③|
③①⑥⑧ |④⑤⑥⑦⑧⑨|
⑤⑨口口
口口口②

⑬⑮⑫⑫
口⑬口口
口口⑪⑪ |⑩-⑪--⑫|
口口⑩⑭ |--⑬⑭-⑮|
46
口⑧口口 |①-②③-④|
①⑥①⑦ |⑤-⑥⑦-⑧|
②③③⑦
④⑤⑤口

⑫口⑨⑨
口口口口
⑩⑪⑪口 |⑨-⑩⑪-⑫|
口口口口

口⑭口⑭
口⑬口⑬
口口口口
口口口口 |--⑬--⑭|
47
口⑦口口 |--①②-③|
口⑤⑥⑥ |④-⑤⑥-⑦|
①口②②
③④④口

口口⑧⑧
口口口⑫
⑨⑪⑩⑪ |⑧-⑨⑩-⑪|
⑪口⑪⑩ |--⑫-|
48
④①④① |①-②--③|
②⑤②⑤ |----|
③⑥③⑥ |④-⑤--⑥|
⑥③⑥③ |----|
49
①口①口 |①-②-|
口口口口
口口口口
口②口②

⑤③⑤③
口口③口 |③-④--⑤|
口④口口
④口④口

⑨⑦⑨⑦
口⑧口口
口口⑦口 |--⑥-|
⑧⑥⑧⑥ |⑦-⑧--⑨|
50
④②④② |--①-|
口③③口 |②-③--④|
口②②口
③①③①

口⑥口⑥
⑦口⑦⑧
⑧⑥口⑥ |--⑤-|
⑦⑤⑦⑤ |⑥---⑦----⑧--|

不確定度: 0

最終更新:2016年06月14日 02:25