FUNKY SUMMER BEACH
P*Light

BASIC

Level: 4
BPM: 175
Notes: 394

1
口口口口 |----|
口口口口 |----|
口口口口 |----|
口口口口 |----|
2
①①②② |①---|
口口口口 |----|
口口口口 |②---|
口口口口 |----|
3
口口口口 |①---|
口①④口 |②---|
口③②口 |③---|
口口口口 |④---|
4
①①②② |①---|
口口口口 |----|
口口口口 |②---|
口口口口 |----|
5
口口口口 |①---|
口①④口 |②---|
口③②口 |③---|
口口口口 |④---|
6
口口口口 |①---|
口口口口 |----|
口口口口 |②---|
①①②② |----|
7
口口口口 |①---|
口①④口 |②---|
口③②口 |③---|
口口口口 |④---|
8
口口口口 |①---|
口口口口 |----|
口口口口 |②---|
①①②② |----|
9
口口口口 |①---|
口①④口 |②---|
口③②口 |③---|
口口口口 |④---|
10
①口口口 |①---|
②口口口 |②---|
③口口口 |③---|
④口口口 |④---|
11
口口口① |①---|
口口口② |②---|
口口口③ |③---|
口口口④ |④---|
12
口①口口 |①---|
口口②口 |②---|
口③口口 |③---|
口口④口 |④---|
13
口口④口 |①---|
口③口口 |②---|
口口②口 |③---|
口①口口 |④---|
14
①②口口 |①---|
口口口口 |②---|
③④口口 |③---|
口口口口 |④---|
15
口口②① |①---|
口口口口 |②---|
口口④③ |③---|
口口口口 |④---|
16
口口口口 |①---|
口①④口 |②---|
口口口口 |③---|
口②③口 |④---|
17
口①①口 |①---|
②口口② |②---|
③口口③ |③---|
口④④口 |④---|
18
口口口口 |①---|
口①①口 |----|
口口口口 |----|
口口口口 |----|
19
口口口② |①---|
口③③口 |----|
口口口口 |②---|
①口口口 |③---|
20
口口口口 |①---|
口口口口 |----|
口①①口 |----|
口口口口 |----|
21
①口口① |①---|
②口口② |②---|
③口口③ |③---|
④口口④ |④---|
22
口①口口 |①---|
口口②口 |②---|
口③口口 |③---|
口④④口 |④---|
23
①口口口 |①---|
口口口② |②---|
③口口口 |③---|
口口口口 |----|
24
口①①口 |①---|
口②②口 |②---|
口③③口 |③---|
口④④口 |④---|
25
①①①① |①---|
口口口口 |----|
口口口口 |----|
口口口口 |----|
26
④④口口 |①---|
口口①① |②---|
③③口口 |③---|
口口②② |④---|
27
口口①① |①---|
④④口口 |②---|
口口②② |③---|
③③口口 |④---|
28
①①口口 |①---|
口口④④ |②---|
②②口口 |③---|
口口③③ |④---|
29
口口④④ |①---|
①①口口 |②---|
口口③③ |③---|
②②口口 |④---|
30
④④口口 |①---|
口口①① |②---|
③③口口 |③---|
口口②② |④---|
31
口口①① |①---|
④④口口 |②---|
口口②② |③---|
③③口口 |④---|
32
①①口口 |①---|
口口④④ |②---|
②②口口 |③---|
口口③③ |④---|
33
口口④④ |①---|
①①口口 |②---|
口口③③ |③---|
②②口口 |④---|
34
①②口口 |--①-|
口口④③ |--②-|
①②口口 |--③-|
口口④③ |--④-|
35
口口④③ |--①-|
①②口口 |--②-|
口口④③ |--③-|
①②口口 |--④-|
36
①②口口 |--①-|
口口④③ |--②-|
①②口口 |--③-|
口口④③ |--④-|
37
口口④③ |--①-|
①②口口 |--②-|
口口④③ |--③-|
①②口口 |--④-|
38
①口口④ |--①-|
口②③口 |--②-|
①口口④ |--③-|
口②③口 |--④-|
39
口②③口 |--①-|
①口口④ |--②-|
口②③口 |--③-|
①口口④ |--④-|
40
口③口② |--①-|
①口④口 |--②-|
口③口② |--③-|
①口④口 |--④-|
41
①口①口 |--①-|
口②口② |--②-|
③口③口 |--③-|
口④口④ |--④-|
42
口口口口 |①---|
口口①口 |----|
口口口口 |----|
口口口口 |----|
43
口口口口 |----|
口口口口 |----|
口口口口 |----|
口口口口 |----|
44
①①口口 |①---|
口口口口 |----|
口口②口 |②---|
③口口口 |③---|
45
口口口口 |----|
口①口口 |----|
口口口口 |①---|
口口口口 |----|
46
口口①① |①---|
口口口口 |----|
口②口口 |②---|
口口口③ |③---|
47
口口口口 |----|
口口①口 |----|
口口口口 |①---|
口口口口 |----|
48
①①口口 |①---|
口口口口 |----|
口口②口 |②---|
③口口口 |③---|
49
口口口口 |----|
口①口口 |----|
口口②口 |①---|
口口口口 |②---|
50
口口口口 |①---|
口口②口 |----|
口口口口 |----|
口①口口 |--②-|
51
口口口口 |----|
口口口口 |----|
口口口口 |----|
口口口口 |----|
52
①口口① |①---|
口口口② |②---|
③口口口 |③---|
口口口④ |④---|
53
口①①口 |①---|
口口②口 |②---|
口③口口 |③---|
口口④口 |④---|
54
口①①口 |①---|
口②口口 |②---|
口口③口 |③---|
口④口口 |④---|
55
①口口① |①---|
②口口② |②---|
③口口③ |③---|
④口口④ |④---|
56
口①①口 |①---|
口②②口 |----|
口口口口 |②---|
口口口口 |----|
57
口口口口 |①---|
口口口口 |----|
口①①口 |②---|
口②②口 |----|
58
①口口① |①---|
②口口② |②---|
③口口③ |③---|
④口口④ |④---|
59
口口口口 |①---|
口①①口 |----|
口①①口 |----|
口口口口 |----|
60
①①口口 |①---|
口口②口 |②---|
口口口③ |③---|
口口④口 |④---|
61
口口口口 |①---|
口③④口 |②---|
②口口口 |③---|
口①口口 |④---|
62
口口①① |①---|
②口口口 |②---|
口口口口 |③---|
③口口④ |④---|
63
口口口口 |①---|
口口口① |②---|
②口口口 |③---|
口③④口 |④---|
64
①①口口 |①---|
口口②口 |②---|
口口口③ |③---|
口口④口 |④---|
65
口口口口 |①---|
口③④口 |②---|
②口口口 |③---|
口①口口 |④---|
66
口口①① |①---|
②口口口 |②---|
口口口口 |③---|
③口口④ |④---|
67
口口口口 |①---|
口口口① |②---|
②口口口 |③---|
口③④口 |④---|
68
①②口口 |--①-|
口口④③ |--②-|
①②口口 |--③-|
口口④③ |--④-|
69
口口④③ |--①-|
①②口口 |--②-|
口口④③ |--③-|
①②口口 |--④-|
70
①口口④ |--①-|
口②③口 |--②-|
①口口④ |--③-|
口②③口 |--④-|
71
口②③口 |--①-|
①口口④ |--②-|
口②③口 |--③-|
①口口④ |--④-|
72
①口口② |--①-|
口③④口 |--②-|
①口口② |--③-|
口③④口 |--④-|
73
口③④口 |--①-|
①口口② |--②-|
口③④口 |--③-|
①口口② |--④-|
74
①口口① |--①-|
口②②口 |--②-|
③口口③ |--③-|
口④④口 |--④-|
75
口①①口 |--①-|
口口口口 |----|
口②②口 |--②-|
口口口口 |----|
76
口口口口 |①---|
①①①① |----|
口口口口 |----|
口口口口 |----|

不確定度: 0

最終更新:2014年11月30日 15:42