FUNKY SUMMER BEACH
P*Light

ADVANCED

Level: 7
BPM: 175
Notes: 645

1
口口口口 |----|
口口口口 |----|
口口口口 |----|
口口口口 |----|
2
口口口口 |①---|
口②⑤口 |②-③-|
口⑥③口 |④---|
口④①① |⑤-⑥-|
3
口③②① |①-②-|
口⑤口口 |③---|
口口口口 |④---|
口口口④ |⑤---|
4
口口口口 |①---|
口⑤②口 |②-③-|
口③⑥口 |④---|
①①④口 |⑤-⑥-|
5
①②③口 |①-②-|
口口口口 |③---|
口⑤口口 |④---|
④口口口 |⑤---|
6
口口口口 |①---|
口②⑤口 |②-③-|
口⑥③口 |④---|
口④①① |⑤-⑥-|
7
口③②① |①-②-|
口⑤口口 |③---|
口口口口 |④---|
口口口④ |⑤---|
8
口口口口 |①---|
口⑤②口 |②-③-|
口③⑥口 |④---|
①①④口 |⑤-⑥-|
9
①②③口 |①-②-|
口口口口 |③---|
口⑤口口 |④---|
④口口口 |⑤---|
10
口口口口 |①-②-|
③口口② |③-④-|
⑦⑥⑤④ |⑤-⑥-|
口①①口 |⑦---|
11
口②①口 |①-②-|
口④③口 |③-④-|
口⑥⑤口 |⑤-⑥-|
口口⑦口 |⑦---|
12
①②③④ |①-②-|
口口口口 |③-④-|
口口口口 |⑤-⑥-|
⑧⑦⑥⑤ |⑦-⑧-|
13
口口口口 |①-②-|
①②③④ |③-④-|
⑧⑦⑥⑤ |⑤-⑥-|
口口口口 |⑦-⑧-|
14
口口①口 |--①-|
口②③口 |②-③-|
口口口口 |④-⑤-|
④⑤⑥⑦ |⑥-⑦-|
15
①②③④ |①-②-|
口⑥口⑧ |③-④-|
⑤口⑦口 |⑤-⑥-|
口口口口 |⑦-⑧-|
16
①口③⑦ |①-②-|
②口④⑧ |③-④-|
口⑤口口 |⑤-⑥-|
口⑥口口 |⑦-⑧-|
17
口⑦⑧口 |①-②-|
口⑤⑥口 |③-④-|
③口口④ |⑤-⑥-|
①口口② |⑦-⑧-|
18
①口口口 |①---|
②口口口 |②---|
③口口口 |③---|
④口口口 |④---|
19
口①④④ |①---|
口②口口 |②---|
口③口口 |③---|
口④口口 |④---|
20
①口口口 |①---|
②口口口 |②---|
③口口口 |③---|
④口①① |④---|
21
口①④④ |①---|
口②③③ |②---|
口③②② |③---|
口④①① |④---|
22
口口口口 |①-②-|
⑤口口⑥ |③-④-|
③⑦⑦④ |⑤-⑥-|
①口口② |⑦---|
23
口①②口 |①-②-|
口③④口 |③-④-|
口⑦⑦口 |⑤-⑥-|
⑤口口⑥ |⑦---|
24
①口口② |①-②-|
③口口④ |③-④-|
⑤口口⑥ |⑤-⑥-|
⑦口口⑧ |⑦-⑧-|
25
②口口② |①---|
口①①口 |----|
口①①口 |②---|
口③③口 |③---|
26
口①①口 |①--②|
③②口口 |--③-|
②③口口
口口口口

口口⑦口
口口口⑥
口口⑤口 |④-⑤-|
口口口④ |⑥-⑦-|
27
口口口口 |①--②|
②③口口 |--③-|
③②口口
口①①口

口口口④
口口⑤口
口口口⑥ |④-⑤-|
口口⑦口 |⑥-⑦-|
28
口①①口 |①--②|
③②口口 |--③-|
②③口口
口口口口

口口⑦口
口口口⑥
口口⑤口 |④-⑤-|
口口口④ |⑥-⑦-|
29
①口口① |①--②|
口②②口 |--③-|
③④口③ |④-⑤-|
口⑥⑤口 |⑥---|
30
口①①口 |①--②|
口口②③ |--③-|
口口③②
口口口口

口⑦口口
⑥口口口
口⑤口口 |④-⑤-|
④口口口 |⑥-⑦-|
31
口口口口 |①--②|
口口③② |--③-|
口口②③
口①①口

④口口口
口⑤口口
⑥口口口 |④-⑤-|
口⑦口口 |⑥-⑦-|
32
口①①口 |①--②|
口口②③ |--③-|
口口③②
口口口口

口⑦口口
⑥口口口
口⑤口口 |④-⑤-|
④口口口 |⑥-⑦-|
33
①口口① |①--②|
口②②口 |--③-|
③口④③ |④-⑤-|
口⑤⑥口 |⑥---|
34
②④口① |①-②-|
④②口③ |③-④-|
⑥⑧口⑤ |⑤-⑥-|
⑧⑥口⑦ |⑦-⑧-|
35
②④①口 |①-②-|
④②③口 |③-④-|
⑥⑧⑤口 |⑤-⑥-|
⑧⑥⑦口 |⑦-⑧-|
36
②④口① |①-②-|
④②口③ |③-④-|
⑥⑧口⑤ |⑤-⑥-|
⑧⑥口⑦ |⑦-⑧-|
37
②④①口 |①-②-|
④②③口 |③-④-|
⑥⑧⑤口 |⑤-⑥-|
⑧⑥⑦口 |⑦-⑧-|
38
①口②④ |①-②-|
③口④② |③-④-|
⑤口⑥⑧ |⑤-⑥-|
⑦口⑧⑥ |⑦-⑧-|
39
口①②④ |①-②-|
口③④② |③-④-|
口⑤⑥⑧ |⑤-⑥-|
口⑦⑧⑥ |⑦-⑧-|
40
①口②④ |①-②-|
③口④② |③-④-|
⑤口⑥⑧ |⑤-⑥-|
⑦口⑧⑥ |⑦-⑧-|
41
口①②④ |①-②-|
口③④② |③-④-|
口⑤⑥⑧ |⑤-⑥-|
口⑦⑧⑥ |⑦-⑧-|
42
口①①口 |①---|
口口口口 |----|
口口口口 |----|
口口口口 |----|
43
口口口口 |----|
口口口口 |----|
口口口口 |----|
口口口口 |----|
44
口口口① |①---|
口⑥⑦口 |②-③-|
口口口口 |④-⑤-|
②③④⑤ |⑥-⑦-|
45
口②②口 |①---|
口口口① |②---|
⑤④③口 |③-④-|
口口口口 |⑤---|
46
口口⑧⑦ |①-②-|
口⑤⑥口 |③-④-|
口口口口 |⑤-⑥-|
①②③④ |⑦-⑧-|
47
口①口口 |①---|
口口口口 |②-③-|
口②③④ |④---|
口⑤⑤口 |⑤---|
48
④③②① |①-②-|
口口⑤口 |③-④-|
口⑦⑥口 |⑤---|
口口口口 |⑥-⑦-|
49
口口口口 |①-②-|
口⑥⑦口 |③-④-|
⑤口口口 |⑤---|
①②③④ |⑥-⑦-|
50
①②③④ |①-②-|
口口口口 |③-④-|
口口口口 |--⑤-|
⑥口口⑤ |--⑥-|
51
口口口口 |----|
口口口口 |----|
口口口口 |----|
口口口口 |----|
52
口口①① |①---|
口②口口 |----|
口②口口 |----|
①①口口 |--②-|
53
口口口② |①---|
③口①② |----|
③口①④ |②-③-|
口口口④ |④---|
54
口口口② |①---|
口口口② |----|
口①①口 |----|
口口口口 |--②-|
55
口口⑤⑤ |①---|
④④口口 |②---|
①②②口 |③-④-|
①口③③ |⑤---|
56
①①⑧口 |①-②-|
口⑦②口 |③-④-|
口③⑥口 |⑤-⑥-|
⑤⑤④口 |⑦-⑧-|
57
①①口⑧ |①-②-|
⑦口口② |③-④-|
③口口⑥ |⑤-⑥-|
⑤⑤口④ |⑦-⑧-|
58
①①口⑧ |①-②-|
⑦⑦②口 |③-④-|
③③口⑥ |⑤-⑥-|
⑤⑤口④ |⑦-⑧-|
59
①①⑦口 |①-②-|
口口②⑦ |③-④-|
⑦③⑥口 |⑤-⑥-|
⑤⑦④口 |⑦---|
60
①①口口 |①--②|
口②②口 |--③-|
口口口口
③口口③

⑥口口⑤
⑥口口⑤
口④④口 |-④--|
口口口口 |⑤-⑥-|
61
口②②口 |①--②|
⑤口口⑥ |--③-|
③④③④ |-④--|
⑤①①⑥ |⑤-⑥-|
62
③②③② |①--②|
口⑤⑥口 |--③-|
④口口④ |-④--|
⑤①①⑥ |⑤-⑥-|
63
②③②③ |①--②|
口④口④ |--③-|
⑤①①⑥ |-④--|
⑤口口⑥ |⑤-⑥-|
64
⑤④③⑥ |①--②|
③口口④ |--③-|
⑤①①⑥ |-④--|
口②②口 |⑤-⑥-|
65
⑤⑤⑥⑥ |①--②|
口①①口 |--③-|
口③②口 |-④--|
②④④③ |⑤-⑥-|
66
⑤口口⑥ |①--②|
口③②口 |--③-|
①⑤⑥① |-④--|
②④④③ |⑤-⑥-|
67
口②①口 |①--②|
④口口③ |--③-|
③⑤⑤④ |-④--|
①口口② |⑤---|
68
②④口① |①-②-|
④②口③ |③-④-|
⑥⑧口⑤ |⑤-⑥-|
⑧⑥口⑦ |⑦-⑧-|
69
②④①口 |①-②-|
④②③口 |③-④-|
⑥⑧⑤口 |⑤-⑥-|
⑧⑥⑦口 |⑦-⑧-|
70
②④口① |①-②-|
④②口③ |③-④-|
⑥⑧口⑤ |⑤-⑥-|
⑧⑥口⑦ |⑦-⑧-|
71
②④①口 |①-②-|
④②③口 |③-④-|
⑥⑧⑤口 |⑤-⑥-|
⑧⑥⑦口 |⑦-⑧-|
72
②口①① |①-②-|
口④③口 |③-④-|
⑥口口⑤ |⑤-⑥-|
⑧⑧⑦⑦ |⑦-⑧-|
73
口②①① |①-②-|
④口口③ |③-④-|
口⑥⑤口 |⑤-⑥-|
⑧口口⑦ |⑦-⑧-|
74
⑤①①⑥ |①-②-|
⑦③③⑧ |③-④-|
⑨口口⑩ |⑤⑥⑦⑧|
⑪②④⑫ |⑨⑩⑪⑫|
75
口口口口 |①---|
口口口口 |----|
口①口口 |----|
口口口口 |----|
76
口①口口 |①---|
口口口① |----|
①口口口 |----|
口口①口 |----|

不確定度: 0

最終更新:2014年11月30日 15:41