FUJIN Rumble
COSIO(ZUNTATA)「グルーヴコースター」より

EXTREME

Level: 10
BPM: 192
Notes: 862

1
口口口口 |----|
口口口口 |----|
口口口口 |----|
口口口口 |----|
2
口口口口 |----|
口口口口 |----|
口口口口 |----|
口口口口 |----|
3
口口口口 |----|
口口口口 |----|
口口口口 |----|
口口口口 |----|
4
口口口① |----|
口口②口 |----|
口③口口 |----|
④口口口 |①②③④|
5
口口口口 |①---|
口口口口 |②---|
口口④③ |③---|
口口②① |④---|
6
口口④③ |①---|
口口②① |②---|
口口口口 |③---|
口口口口 |④---|
7
口口口口 |①---|
口口口口 |②---|
③④口口 |③---|
①②口口 |④---|
8
③口口④ |①---|
①②⑤口 |②---|
口⑥口口 |③---|
⑦口口口 |④⑤⑥⑦|
9
口口②口 |①---|
口口口口 |②---|
口⑤④口 |③-④-|
口③①① |--⑤-|
10
口口②口 |①---|
口③①口 |②-③-|
④口口⑤ |--④-|
⑥口口口 |⑤-⑥-|
11
口口口① |----|
口②③口 |①---|
④口口口 |②-③-|
口④口口 |--④-|
12
②口口口 |--①-|
口②口① |--②-|
口口①口 |----|
口口口口 |----|
13
口口②口 |①---|
口口口口 |②---|
口⑤④口 |③-④-|
口③①口 |--⑤-|
14
口口②口 |①---|
口③①口 |②-③-|
④口口⑤ |--④-|
⑥口口口 |⑤-⑥-|
15
口口口① |----|
口②③口 |①---|
④口口口 |②-③-|
口④口口 |--④-|
16
②口口③ |--①-|
口②④① |--②-|
口⑤①口 |----|
⑥口口口 |③④⑤⑥|
17
口口口④ |①---|
口口口③ |②---|
口口口② |③---|
口口①① |④---|
18
③②①口 |①---|
④口⑤口 |②---|
口口口口 |③---|
口口口口 |④-⑤-|
19
口口口口 |①---|
口口口口 |②---|
①口口口 |③---|
②③④口 |④---|
20
口口口⑥ |①-②-|
口⑤⑦④ |③---|
口②口③ |④--⑤|
口口口① |⑥-⑦-|
21
口①①口 |①---|
口口口③ |--②-|
口口口③ |----|
口②②口 |③---|
22
③口口口 |①---|
①口②口 |--②-|
①②口口 |----|
口口口③ |③---|
23
⑦⑦①① |①-②-|
③③⑤⑤ |③-④-|
⑧⑧②② |⑤-⑥-|
④④⑥⑥ |⑦-⑧-|
24
⑧口⑪① |①-②-③-|
②④⑦⑤ |④-⑤-⑥-|
⑫口③⑨ |⑦-⑧-⑨-|
⑥⑩口口 |⑩-⑪-⑫-|
25
口口口口 |----|
口口口口 |----|
口口口口 |----|
口口口口 |----|
26
口口口口 |----|
口口口口 |----|
口口口口 |----|
口口口口
27
口口口口 |----|
口口口口 |①②③④|
口口口口
④③②①
28
口③②⑧ |①-②③|
⑤口④口 |-④⑤⑥|
⑦口⑥① |⑦-⑧-|
⑪⑩⑨口 |⑨⑩⑪-|
29
口③②口 |①-②③|
口口⑥口 |-④⑤⑥|
⑤口④口
口口口①

口口口⑧
⑦口口口
口口口口 |⑦-⑧-|
⑨⑩⑪⑫ |⑨⑩⑪⑫|
30
口③②⑧ |①-②③|
⑦口⑥口 |-④⑤⑥|
⑤口④① |⑦-⑧-|
⑪⑩⑨口 |⑨⑩⑪-|
31
⑩④③口 |①②③④|
口⑨⑦⑤ |-⑤⑥⑦|
⑥②⑧① |-⑧⑨⑩|
⑭⑬⑫⑪ |⑪⑫⑬⑭|
32
口③②⑧ |①-②③|
⑤口④口 |-④⑤⑥|
⑦口⑥① |⑦-⑧-|
⑪⑩⑨口 |⑨⑩⑪-|
33
口③②口 |①-②③|
口口⑥口 |-④⑤⑥|
⑤口④口
口口口①

口口口⑧
⑦口口口
口口口口 |⑦-⑧-|
⑨⑩⑪⑫ |⑨⑩⑪⑫|
34
口③②⑧ |①-②③|
⑦口⑥口 |-④⑤⑥|
⑤口④① |⑦-⑧-|
⑪⑩⑨口 |⑨⑩⑪-|
35
②④③⑨ |①②③④|
⑦⑧⑬口 |-⑤⑥⑦|
⑤⑫⑥① |-⑧⑨⑩|
⑭⑩口⑪ |⑪⑫⑬⑭|
36
口口口口 |①---|
②④③① |--②-|
②③④① |----|
口口口口 |③-④-|
37
①口口② |--①-|
口口口口 |----|
口口口口 |②---|
①口口②
38
口①口口 |①---|
③②④② |--②-|
①③①④ |----|
口口②口 |③-④-|
39
①口①口 |--①-|
③口口② |----|
①口①口 |②-③-|
③口口②
40
口②②口 |①---|
口①①口 |--②-|
口口口口 |----|
口②②口
41
口口口口 |①---|
②④③① |--②-|
②③④① |----|
口口口口 |③-④-|
42
①口口② |--①-|
口口口口 |----|
口口口口 |②---|
①口口②
43
口①口口 |①---|
④②③② |--②-|
①口①口 |----|
口④②③ |③-④-|
44
③口口② |--①-|
口口口口 |----|
口①①口 |②-③-|
②口口③ |--|
45
⑧①①⑦ |①-②-|
口⑥⑤口 |③-④-|
①④③① |⑤-⑥-|
口②口口 |⑦-⑧-|
46
口⑧⑦口 |①-②-|
⑥口口⑤ |③-④-|
②口口① |⑤-⑥-|
口④③口 |⑦-⑧-|
47
⑧⑭⑬① |①②③④|
⑫④⑦⑨ |⑤⑥⑦⑧|
⑩②⑤⑮ |⑨⑩⑪⑫|
⑥⑯⑪③ |⑬⑭⑮⑯|
48
口口口口 |----|
口口口口 |----|
口①①口 |----|
口口口口 |①---|
49
⑤⑦③① |①-②-③-|
④②⑥⑧ |④-⑤-⑥-|
口口口口 |⑦-⑧---|
口口口口
50
口口口口 |①---|
口口口口 |②③④⑤|
口①①口
⑤④③②
51
口③②⑧ |①-②③|
⑤口④口 |-④⑤⑥|
⑦口⑥① |⑦-⑧-|
⑪⑩⑨口 |⑨⑩⑪-|
52
口③②口 |①-②③|
口口⑥口 |-④⑤⑥|
⑤口④口
口口口①

口口口⑧
⑦口口口
口口口口 |⑦-⑧-|
⑨⑩⑪⑫ |⑨⑩⑪⑫|
53
口③②⑧ |①-②③|
⑦口⑥口 |-④⑤⑥|
⑤口④① |⑦-⑧-|
⑪⑩⑨口 |⑨⑩⑪-|
54
⑩④③口 |①②③④|
口⑨⑦⑤ |-⑤⑥⑦|
⑥②⑧① |-⑧⑨⑩|
⑭⑬⑫⑪ |⑪⑫⑬⑭|
55
口③②⑧ |①-②③|
⑤口④口 |-④⑤⑥|
⑦口⑥① |⑦-⑧-|
⑪⑩⑨口 |⑨⑩⑪-|
56
口③②口 |①-②③|
口口⑥口 |-④⑤⑥|
⑤口④口
口口口①

口口口⑧
⑦口口口
口口口口 |⑦-⑧-|
⑨⑩⑪⑫ |⑨⑩⑪⑫|
57
⑩③②⑧ |①-②③|
⑦口⑥⑪ |-④⑤⑥|
⑤口④① |⑦-⑧-|
口口⑨口 |⑨⑩⑪-|
58
口口③口 |①②③④|
⑦④⑥口 |-⑤⑥⑦|
口⑤口口
口②口①

⑫⑩口口
口口口口
⑭口⑪⑨ |-⑧⑨⑩|
⑧口口⑬ |⑪⑫⑬⑭|
59
⑨⑧①④ |①-②③|
⑧⑩⑤① |-④⑤⑥|
口⑥⑪口 |⑦-⑧-|
⑦③②口 |⑨⑩⑪-|
60
⑨⑧①④ |①-②③|
⑧⑩⑤① |-④⑤⑥|
口⑥⑪口 |⑦-⑧-|
⑦③②⑫ |⑨⑩⑪⑫|
61
⑨⑧①④ |①-②③|
⑧⑩⑤① |-④⑤⑥|
口⑥⑪口 |⑦-⑧-|
⑦③②口 |⑨⑩⑪-|
62
⑪口口⑤ |①②③④|
⑩⑫⑥① |-⑤⑥⑦|
⑨⑦⑬② |-⑧⑨⑩|
⑧④③⑭ |⑪⑫⑬⑭|
63
⑨⑧①④ |①-②③|
⑧⑩⑤① |-④⑤⑥|
口⑥⑪口 |⑦-⑧-|
⑦③②口 |⑨⑩⑪-|
64
⑨⑧①④ |①-②③|
⑧⑩⑤① |-④⑤⑥|
口⑥⑪口 |⑦-⑧-|
⑦③②⑫ |⑨⑩⑪⑫|
65
口⑧①⑨ |①-②③|
⑩⑭⑥① |④⑤⑥⑦|
⑤⑦⑪④ |-⑧⑨⑩|
⑫③②⑬ |⑪⑫⑬⑭|
66
⑥口①口 |①-②③|
⑫⑭⑤⑨ |-④⑤⑥|
④⑧⑪⑦ |⑦⑧⑨⑩|
⑩③②⑬ |⑪⑫⑬⑭|
67
④③②① |①---|
口口口口 |②---|
口口口口 |③---|
口口口口 |④---|
68
口口口口 |①---|
口口口口 |②---|
口口口口 |③---|
④③②① |④---|
69
②口口② |①---|
口口口口 |②---|
口①①口
口口口口

口口口口
④口口③
④口⑤③ |③-④-|
口口口⑤ |--⑤-|
70
口②②口 |--①-|
口口口口 |--②-|
口①口口 |--③-|
①③③口 |----|
71
口口口口 |①-②-|
④⑥②⑧ |③-④-|
⑤③⑦① |⑤-⑥-|
口口口口 |⑦-⑧-|
72
④口②口 |①-②-|
⑤⑥⑦口 |③-④-|
⑪⑩⑨⑧ |⑤⑥⑦-|
口③口① |⑧⑨⑩⑪|
73
②①①② |①---|
④口口③ |②---|
口口口口 |③-④-|
④⑤⑤③ |--⑤-|
74
⑧⑭①⑤ |①②③④|
⑫④⑮⑨ |⑤⑥⑦⑧|
②⑥⑪③ |⑨⑩⑪⑫|
⑩⑯⑬⑦ |⑬⑭⑮⑯|
75
口口口口 |----|
口口口口 |----|
①口口① |①---|
口口口口
76
⑫口⑤① |①-②③|
⑩④③⑪ |④⑤-⑥|
⑨②口口 |⑦⑧-⑨|
⑥⑦⑧口 |-⑩⑪⑫|
77
⑫口⑤① |①-②③|
⑩④③⑪ |④⑤-⑥|
⑨②口口 |⑦⑧-⑨|
⑥⑦⑧口 |-⑩⑪⑫|
78
口⑧⑦① |①②-③|
⑫⑭②⑪ |④⑤-⑥|
⑩⑤④③ |⑦⑧⑨⑩|
⑥口⑬⑨ |⑪⑫⑬⑭|
79
②⑥口① |①②-③|
口口口口 |④⑤-⑥|
口③④口
⑤口口口

⑬口口口
⑪口口⑨
⑩口口⑦ |⑦⑧⑨⑩|
口⑧口⑫ |-⑪⑫⑬|
80
⑫口⑤① |①-②③|
⑩④③⑪ |④⑤-⑥|
⑨②口口 |⑦⑧-⑨|
⑥⑦⑧口 |-⑩⑪⑫|
81
⑫口⑤① |①-②③|
⑩④③⑪ |④⑤-⑥|
⑨②口口 |⑦⑧-⑨|
⑥⑦⑧口 |-⑩⑪⑫|
82
口⑧⑦① |①②-③|
⑫⑭②⑪ |④⑤-⑥|
⑩⑤④③ |⑦⑧⑨⑩|
⑥口⑬⑨ |⑪⑫⑬⑭|
83
③口口① |①②-③|
口口⑤口 |④-⑤⑥|
口口口④
⑥②口口

口口口口
⑩口口⑨
⑫⑧⑦口 |⑦⑧⑨⑩|
口⑭⑬⑪ |⑪⑫⑬⑭|
84
④③②① |①②③④|
⑪⑩⑨⑧ |⑤-⑥-⑦-|
口⑬⑦⑤ |⑧⑨⑩⑪|
⑥口⑭⑫ |⑫-⑬-⑭-|
85
⑦⑥⑤④ |①-②-③-|
口口口口 |④⑤⑥⑦|
①口口③
口②口口

口口口口
⑪⑩⑨⑧
⑬⑭⑫口 |⑧⑨⑩⑪|
口口口口 |⑫-⑬-⑭-|
86
⑥口口⑤ |①②③④|
⑩⑧⑨⑦ |⑤-⑥-⑦-|
⑭⑬⑫⑪ |⑧-⑨-⑩-|
④③②① |⑪⑫⑬⑭|
87
口②①③ |①-②-③-|
⑪⑩⑨⑧ |④⑤⑥⑦|
⑬口⑭⑫ |⑧⑨⑩⑪|
⑦⑥⑤④ |⑫-⑬-⑭-|
88
④③②① |①②③④|
⑪⑩⑨⑧ |⑤-⑥-⑦-|
口⑥⑭⑫ |⑧⑨⑩⑪|
⑬口⑦⑤ |⑫-⑬-⑭-|
89
⑦⑥⑤④ |①-②-③-|
口口口口 |④⑤⑥⑦|
③口口口
口①口②

口口口口
⑪⑩⑨⑧
口口口口 |⑧⑨⑩⑪|
口⑬⑫⑭ |⑫-⑬-⑭-|
90
⑧⑥⑦⑤ |①②③④|
口⑩⑨口 |⑤-⑥-⑦-|
④③②① |⑧-⑨-⑩-|
⑭⑬⑫⑪ |⑪⑫⑬⑭|
91
口口口③ |①-②-③-|
②口口① |④⑤⑥⑦|
⑦⑥⑤④
口口口口

口⑨⑧口
⑮⑪⑩⑭
口口口口 |⑧⑨⑩⑪|
口⑬⑫口 |⑫⑬⑭⑮|
92
口口口口 |----|
口口口口 |----|
口口口口 |----|
口口口口 |----|
93
口口口① |----|
口口②口 |----|
口③口口 |----|
④口口口 |①②③④|
94
口口口口 |①---|
口口口口 |----|
口口口口 |----|
口口①① |----|
95
口口口口 |----|
口③②① |①---|
口口口口 |②---|
口口口口 |③---|
96
口口口口 |①---|
①口口口 |--②-|
口口②口 |----|
口口口口 |----|
97
⑧口口⑦ |①-②-|
⑥口口⑤ |③-④-|
④口口③ |⑤-⑥-|
②口口① |⑦-⑧-|
98
口口口① |----|
口口②口 |----|
口③口口 |----|
④口口口 |①②③④|
99
口口口口 |①---|
口口口口 |----|
口口口口 |----|
口口①① |----|

不確定度: 0

最終更新:2015年05月07日 16:07