VERTeX
Hiro「maimai」より

EXTREME

Level: 10
BPM: 237
Notes: 802

1
口口口口 |----|
口口口口 |----|
口口口口 |----|
口口口口
2
口口口口 |----|
口口口口 |----|
口口口口 |----|
口口口口
3
②口口① |①---|
口口口口 |--②-|
口口口口 |----|
口口口①
4
口口口口 |①---|
口②口口 |②---|
口③口口 |③---|
①口口口
5
②口口① |①---|
口口口口 |--②-|
口口口口 |----|
口口口①
6
口口口口 |①---|
口②口口 |②---|
口③口口 |③---|
①口口口
7
②口口① |①---|
口口口口 |--②-|
口口口口 |----|
口口口①
8
口口口口 |①---|
口②口口 |②---|
口③口口 |③---|
①口口口
9
②口口① |①---|
口口口口 |--②-|
口口口口 |----|
口口口①
10
口口口口 |①-②-|
口⑥⑤口 |③-④-|
口④③口 |⑤-⑥-|
口②①口
11
口③④① |①-②-|
口口口② |③-④-|
⑤口口口 |⑤-⑥-|
口口⑥①
12
①口口口 |①-②-|
口⑤⑥口 |③-④-|
口口④② |⑤-⑥-|
③口口口
13
口②③① |①-②-|
口口口口 |③-④-|
④⑥口口 |⑤-⑥-|
口口⑤①
14
④口口口 |①-②-|
口口⑤① |③-④-|
口口口③ |⑤-⑥-|
②⑥口口
15
口口④① |①-②-|
口③口⑥ |③-④-|
⑤口②口 |⑤-⑥-|
口口口①
16
①③口口 |①-②-|
口口④口 |③-④-|
口口口⑥ |⑤-⑥-|
⑤口②口
17
口口④① |①-②-|
口口口③ |③-④-|
口⑥②口 |⑤-⑥-|
口口⑤①
18
⑥②口口 |①-②-|
口⑤①口 |③-④-|
④口口口 |⑤-⑥-|
口③口口
19
口口①口 |①---|
口口口口 |----|
口口口口 |----|
口口口口
20
⑩⑪⑫① |①②③④|
⑨口口② |⑤⑥⑦⑧|
⑧口口③ |⑨⑩⑪⑫|
⑦⑥⑤④
21
口口口口 |①---|
口口①口 |②---|
口②口口 |③---|
口口口③
22
⑤口⑤口 |①-②-|
④口口口 |③-④-|
③⑤②① |--⑤-|
口口口口
23
口口口口 |----|
口①口口 |①---|
口口②口 |②---|
口口口口
24
口口④③ |①-②-|
口⑤口口 |③-④-|
①口口口 |--⑤-|
②口⑤⑤
25
口口口口 |----|
口口①口 |①---|
口②口口 |②---|
口口口口
26
口⑤②① |①-②-|
⑤口口⑤ |③-④-|
④口口口 |--⑤-|
③口口口
27
口口③口 |----|
口口口口 |①-②-|
口②①口 |--③-|
口口口口
28
口②口口 |----|
口①口口 |--①-|
口口②口 |--②-|
口口②口
29
口口③② |①---|
口口②③ |②---|
口口口口 |③---|
①口口口
30
⑤⑤口口 |①-②-|
①②口口 |③-④-|
④③口口 |--⑤-|
口口口口
31
口口口① |----|
口口口① |①---|
口口口② |②---|
口口口②
32
⑤④口⑤ |①-②-|
③口口口 |③-④-|
口②口口 |--⑤-|
①口口口
33
口口口口 |----|
口①①口 |①---|
口口口口 |②---|
②口口②
34
口口口口 |①-②-|
⑤口口⑤ |③-④-|
④②①③ |--⑤-|
口④③口
35
①口口① |①-②-|
口口口口 |----|
口④③口 |③-④-|
②口口②
36
口口口口 |①---|
口②②口 |--②-|
①口口① |----|
口①①口
37
口⑤③① |①-②-|
口口口口 |③-④-|
口口口口 |⑤-⑥-|
口⑥④②
38
①口口口 |①-②-|
口⑤④口 |③-④-|
口③⑥口 |⑤-⑥-|
②口口口
39
②③口口 |①---|
①口口① |----|
①口口① |--②③|
口口口口
40
口口①口 |①---|
口口口口 |----|
口口口口 |----|
口口口口
41
口口口口 |①-②-|
①③⑤口 |③-④-|
口④⑥口 |⑤-⑥-|
②口口口
42
口④⑤口 |①-②-|
口口口① |③-④-|
口口口口 |⑤-⑥-|
口⑥③②
43
①口口① |①---|
口口③② |----|
①口口① |--②③|
口口口口
44
口口口口 |①---|
口①口口 |----|
口口口口 |----|
口口口口
45
口⑤③① |①-②-|
口口口口 |③-④-|
口口口② |⑤-⑥-|
口⑥④口
46
①口口口 |①-②-|
口口口口 |③-④-|
②③④口 |⑤-⑥-|
⑤口口⑥
47
口③②口 |①---|
①①①① |----|
口口口口 |--②③|
口口口口
48
①口口口 |①---|
⑥⑦口口 |--②③|
⑤④③② |④⑤⑥⑦|
口口口口
49
口⑤③① |①-②-|
口口口口 |③-④-|
口口口口 |⑤-⑥-|
口⑥④②
50
①口口口 |①-②③|
口④③② |④-⑤-|
⑤口⑦口 |⑥-⑦-|
口口口⑥
51
口④③口 |①-②-|
①口口⑤ |③-④-|
口②口口 |⑤---|
口口口口
52
口口口① |①---|
口口②口 |②---|
口口口② |----|
口口①口
53
②①口口 |①---|
③口口口 |②---|
口口口口 |③---|
口①口口
54
口口口口 |①---|
口口口口 |②---|
③口口③ |③---|
②口①②
55
②①口口 |①---|
③口④口 |②---|
口口⑤口 |③-④⑤|
口口口口
56
口口口口 |①---|
口口口口 |②---|
口口口③ |③---|
口口①②
57
②①①① |①---|
③①口口 |②---|
口口口口 |③---|
口口口口
58
口口口③ |①---|
口口口② |②---|
口口口③ |③---|
口口①②
59
②①口口 |①---|
③口口口 |②---|
口①④口 |③④⑤-|
⑤口口口
60
口口①口 |①---|
口②口口 |②---|
口③口③ |③---|
口口①②
61
②①口口 |①---|
③口口口 |②---|
口口口口 |③---|
口①口口
62
口口口口 |①---|
口口口口 |②---|
③口口③ |③---|
②口①②
63
②①口口 |①---|
③口④口 |②---|
口口⑤口 |③-④⑤|
口口口口
64
口口口口 |①---|
口口口口 |②---|
口口口③ |③---|
口口①②
65
②①①① |①---|
③①口口 |②---|
口口口口 |③---|
口口口口
66
口口口③ |①---|
口口口② |②---|
口口口③ |③---|
口①①②
67
①③②口 |①-②-|
口①口口 |③-④-|
⑤口口口 |--⑤-|
口④④口
68
口口口口 |①-②-|
②⑥口口 |③-④-|
口口⑤③ |⑤-⑥-|
④口口①
69
口口④① |①-②-|
口口②④ |③-④-|
口③口口 |--⑤-|
口口口⑤
70
口③口口 |①-②-|
③口口口 |--③-|
①口口② |--④-|
④①②口
71
口口④① |①-②-|
口口②④ |③-④-|
口③口口 |--⑤-|
口口口⑤
72
口③口口 |①-②-|
③口口口 |--③-|
①口口② |--④-|
④①②口
73
①口④口 |①-②-|
口②口④ |③-④-|
口⑤③口 |--⑤-|
口口口口
74
口③口口 |①-②-|
③口①口 |--③-|
②口口① |--④-|
口②④口
75
②口口口 |①-②-|
口④③口 |--③-|
口③④口 |--④-|
①口口口
76
口口口① |--①-|
口口口② |--②-|
③口口③ |--③-|
口口②①
77
②①口口 |①---|
③口口口 |②---|
口口口口 |③---|
口①口口
78
口口①口 |①---|
口口口口 |②---|
③口口③ |③---|
②口①②
79
②①口口 |①---|
③口口口 |②---|
口口口口 |③---|
口①口口
80
口口①口 |①---|
口口口口 |②---|
③口口③ |③---|
②口①②
81
②①口口 |①---|
③口③口 |②---|
口口②口 |③---|
口①口口
82
口口①口 |①---|
口口口口 |②-③-|
口③口④ |④---|
口口①②
83
②①口口 |①---|
③口口⑤ |②-③-|
口口④口 |④-⑤-|
口①口口
84
⑥口口③ |①-②-|
口⑤口口 |③-④-|
①②口④ |⑤-⑥-|
口口口口
85
口口①口 |①---|
口口口口 |----|
口口口口 |----|
口口口口
86
口口口口 |----|
口口口口 |----|
口口口口 |----|
口口口口
87
口口口口 |----|
口口口口 |----|
口口口口 |----|
口口口口
88
口①口口 |①---|
口口②口 |②---|
口③口口 |③---|
口口口口
89
口口口口 |①---|
口口口口 |----|
口口口口 |----|
口口①口
90
口口口口 |①---|
口口口口 |----|
口口口口 |----|
口①口口
91
①口口① |①---|
口口口口 |----|
①口口① |----|
口口口口
92
⑤④④⑤ |①-②-|
③⑥⑥③ |③-④-|
口②②口 |⑤-⑥-|
①口口①
93
口口口口 |①---|
口口口口 |----|
①口口① |----|
口口口口
94
口口口口 |①---|
口口口口 |----|
口口口口 |----|
①①①口
95
口口口口 |①---|
口口口口 |----|
口①①① |----|
口口口口
96
口④③② |①-②-|
①①①口 |--③-|
口口口口 |--④-|
口口口口
97
口口口口 |①---|
口口口口 |----|
口口口口 |----|
口①①①
98
口口口口 |①---|
口口口口 |----|
①①①口 |----|
口口口口
99
口口口口 |①---|
口①①① |----|
口口口口 |----|
口口口口
100
①②③口 |①---|
口口口口 |②---|
口口口口 |③---|
口口口口
101
⑥口口③ |①-②-|
②④口口 |③-④-|
①口口① |⑤-⑥-|
口口口⑤
102
口④口口 |①-②-|
⑥口③⑤ |③-④-|
口口口口 |⑤-⑥-|
②①①口
103
④口口口 |①-②-|
口口口口 |③-④-|
②①①③ |⑤-⑥-|
⑥口⑤口
104
口⑥④② |①-②-|
口①①口 |③-④-|
口⑤口口 |⑤-⑥-|
口③口口
105
③口口口 |①-②-|
口口⑥④ |③-④-|
①口口① |⑤-⑥-|
⑤口口②
106
口口④② |①-②-|
③⑤口口 |③-④-|
口口口口 |⑤-⑥-|
口①①⑥
107
③④口口 |①-②-|
口口⑥⑤ |③-④-|
口①①② |⑤-⑥-|
口口口口
108
口口⑥⑥ |①-②-|
②⑤口口 |③-④-|
口口④口 |⑤-⑥-|
①口口③
109
口口口口 |----|
口口口口 |----|
口口口口 |----|
口口口口
110
口口口口 |----|
口口口口 |----|
口口口口 |----|
口口口口
111
口口口口 |----|
口口口口 |----|
口口口口 |----|
口口口口
112
口口口口 |----|
口口口口 |----|
口口口口 |----|
口口口口
113
口口④① |①-②-|
口口②④ |③-④-|
口③口口 |--⑤-|
口口口⑤
114
口③口口 |①-②-|
③口口口 |--③-|
①口口② |--④-|
④①②口
115
口口④① |①-②-|
口口②④ |③-④-|
口③口口 |--⑤-|
口口口⑤
116
口③口口 |①-②-|
③口口口 |--③-|
①口口② |--④-|
④①②口
117
①口④口 |①-②-|
口②口④ |③-④-|
口⑤③口 |--⑤-|
口口口口
118
口③口口 |①-②-|
③口①口 |--③-|
②口口① |--④-|
口②口④
119
②口口口 |①-②-|
口口口口 |--③-|
口④③口 |--④-|
①口口口
120
口口口① |--①-|
口②③口 |--②-|
口口口口 |--③-|
口口口口
121
口口口口 |①---|
口口口口 |--②-|
②口口② |----|
①口口①
122
②①①① |①---|
口②②③ |②---|
口③③口 |③---|
口口口口
123
口口口口 |①---|
口口口口 |--②-|
②口口② |----|
①口口①
124
口①①② |①---|
口②②口 |②---|
口③③口 |③---|
口③口口
125
口④④口 |①---|
口口口口 |②-③-|
③口口② |④---|
①口口①
126
①口口① |①---|
口①①口 |②-③-|
口④④口 |④---|
口③②口
127
④②口③ |①---|
口口口口 |②-③-|
口口口口 |④-⑤-|
①口⑤①
128
口口口口 |①-②-|
①口口② |③-④-|
⑤口口④ |⑤-⑥-|
口③口⑥
129
③①④④ |①-②-|
⑤口②口 |③-④-|
口①口口 |⑤-⑥-|
口⑥口口
130
口口口口 |①-②-|
口②⑥口 |③-④-|
②④口⑤ |⑤-⑥-|
④口①③
131
③①④② |①-②-|
⑤⑥口④ |③-④-|
口口口口 |⑤-⑥-|
口口口口
132
口口口⑥ |①-②-|
口口口口 |③-④-|
④④口⑤ |⑤-⑥-|
②②①③
133
③①④口 |①-②-|
⑤口口④ |③-④-|
口口②口 |⑤-⑥-|
口⑥口口
134
口口口口 |①-②-|
口④⑥口 |③-④-|
②④口⑤ |⑤-⑥-|
②口①③
135
②③口② |①-②-|
口口口口 |--③-|
口口①口 |--④-|
④③口④
136
口口①口 |--①-|
口③口② |--②-|
②口③口 |--③-|
口口①口
137
③①口② |①-②-|
⑤口④口 |③-④-|
口①口口 |⑤-⑥-|
⑥口口口
138
口口口口 |①-②-|
口④口⑤ |③-④-|
②⑥③⑤ |⑤-⑥-|
口①①③
139
③①①④ |①-②-|
⑤口②口 |③-④-|
口口口口 |⑤-⑥-|
口⑥口口
140
口口口口 |①-②-|
口⑥⑤口 |③-④-|
②④③⑤ |⑤-⑥-|
口口①③
141
③①①④ |①-②-|
⑤口口② |③-④-|
⑥口口口 |⑤-⑥-|
口口口口
142
口口④口 |①---|
口③口口 |②-③-|
口口②口 |④---|
口①①口
143
⑦口口① |①②③④|
⑧口②口 |⑤-⑥-|
口③口⑥ |⑦-⑧-|
④口口⑤
144
口口口口 |①-②-|
口②口① |③-④-|
④口③口 |⑤⑥⑦⑧|
⑤⑥⑦⑧
145
口口④① |①-②-|
口口②④ |③-④-|
口③口⑤ |--⑤-|
口口口口
146
③①口③ |①-②-|
①口口口 |--③-|
②口口口 |--④-|
④②口口
147
口口④口 |①-②-|
⑤③口④ |③-④-|
口口②口 |--⑤-|
口口口①
148
③口口③ |①-②-|
口口口口 |--③-|
②口口① |--④-|
④②①口
149
口②①口 |①-②-|
④口口③ |③-④-|
⑥口口⑤ |⑤-⑥-|
口口口口
150
口④③口 |①-②-|
口⑥⑤口 |--③④|
口⑧⑦口 |⑤⑥⑦⑧|
口②①口
151
②口口① |①-②-|
②口口① |--③-|
口口口口 |--④-|
③④④③
152
口①①口 |①---|
口口口口 |----|
口口口口 |----|
口口口口

不確定度: 0

最終更新:2015年05月07日 16:07