コドモライブ
onoken feat.asami

EXTREME

Level: 9
BPM: 140-146
Notes: 631

BPM: 146
1
口口口口 |------|
口口口口 |------|
口口口口 |------|
口口口口 |------|
2
①口口③ |①-----|
口口口口 |②-----|
口口口口 |③-----|
口②④口 |④-----|
3
①口②口 |①---②-|
口口④口 |③---④-|
⑦③口口 |⑤-----|
口⑤口⑥ |⑥---⑦-|
4
③口口① |①-----|
口口⑤口 |②-----|
口口口口 |③-----|
口④②口 |④---⑤-|
5
⑤①①② |①---②-|
口口口口 |③-④-⑤-|
口口口口
③口口④
6
④②②④ |①-----|
口口口口 |②-----|
口口⑤口 |③-----|
③①①③ |④---⑤-|
7
口口②口 |①---②-|
①③③① |③---④-|
口④口口
口口口口

口口口口
⑦口口口
口口口口 |⑤-----|
⑤⑥⑥⑤ |⑥---⑦-|
8
③①①③ |①-----|
口口口口 |②-----|
口⑤口口 |③-----|
②④④② |④---⑤-|
9
口①①口 |①---②-|
⑤⑦②⑤ |③---④-|
口口④⑥ |⑤-----|
③口口③ |⑥---⑦-|
10
①③③① |①-----|
口口⑤口 |②-----|
口口口口 |③-----|
④②②④ |④---⑤-|
11
③口④③ |①---②-|
口②口口 |③---④-|
口①①口
口口口口

口口口口
口⑦口口
口口口⑥ |⑤-----|
⑤口口⑤ |⑥---⑦-|
12
①口口① |①-----|
口口口口 |②-----|
口口口口
口②②口

口③③⑤
口口口口
口口口口 |③-----|
④口口④ |④---⑤-|
13
口口④口 |①---②-|
⑥②口⑥ |③---④-|
⑤①①⑤ |⑤-----|
⑥③③⑥ |⑥-----|
14
①④口口 |①-②-③-|
⑦②⑤口 |④-⑤-⑥-|
口⑧③⑥ |⑦-⑧-⑨-|
⑩口⑨口 |⑩-----|
15
⑧⑧①⑪ |①-②-③-|
口②⑦④ |④-⑤-⑥-|
③⑩⑤⑦ |⑦---⑧-|
口⑥⑨⑨ |⑨-⑩-⑪-|
16
口口口口 |①-----|
①①③③ |②-----|
口口口口 |③-----|
②②④④ |④-----|
17
③口口口 |①-----|
⑤②②口 |②---③-|
口①①口 |④---⑤-|
口口⑥④ |⑥-----|
18
③③①① |①-----|
口口口口 |②-----|
④④②② |③-----|
口口口口 |④-----|
19
口②②③ |①-----|
口①①⑤ |②---③-|
口口口口 |④---⑤-|
④⑥口口 |⑥-----|
20
口口口口 |①-----|
①①③③ |②-----|
口口口口 |③-----|
④④②② |④-----|
21
④口口④ |①-----|
⑤②②⑤ |②---③-|
⑥①①⑥ |④---⑤-|
口③口口 |--⑥---|
22
口⑤⑤⑥ |①-----|
口①①口 |------|
②口③口 |②-③-④-|
②④口口 |⑤---⑥-|
23
④口口口 |①---②-|
口①①口 |③---④-|
口③③口
②口口口

口口口口
口⑦⑦口
口口口口 |⑤---⑥-|
口⑤⑤⑥ |⑦-----|
24
④口口① |①---②-|
口口⑦口 |③-----|
②口口⑤ |④---⑤-|
口⑥③口 |⑥---⑦-|
25
③口口⑤ |①-----|
口口口口 |②---③-|
①②②④ |④-----|
口口口口 |⑤-----|
26
⑦口口口 |①---②-|
①口口④ |③-----|
口⑤②口 |④---⑤-|
口③⑥口 |⑥---⑦-|
27
口口口② |①-----|
口⑥⑦⑧ |②-----|
口口①口 |③-④-⑤-|
③④⑤口 |⑥-⑦-⑧-|
28
①①⑤⑤ |①-②-③-|
口⑥⑦口 |④-----|
口③②口 |⑤-⑥-⑦-|
⑧口⑨④ |⑧---⑨-|
29
①口口口 |①-②-③-|
①⑤口口 |④---⑤-|
口③②④
口口口④

口⑦⑧⑥
口口口⑥
⑨口⑩口 |⑥-⑦-⑧-|
⑨口口口 |⑨---⑩-|
30
①③⑥④ |①---②-|
⑤口②口 |--③---|
口②口⑤ |④---⑤-|
④⑥③① |--⑥---|
31
②口口口 |①-----|
口①口口 |②-----|
口口①口
口口口口

口口口口
口⑧⑦⑥
口口口口 |③-④-⑤-|
③④⑤口 |⑥-⑦-⑧-|
32
口口口口 |①-----|
口口口口 |------|
口①①口 |------|
口口口口 |------|
33
口①①口 |------|
②②③③ |①-②-③-|
④⑥④口 |④-----|
口④⑤④ |⑤---⑥-|
34
①③③① |①-----|
口①②④ |②-----|
③⑤口口 |③-----|
②④④② |④---⑤-|
35
①口口① |①---②-|
口②①口 |③---④-|
口口口③
③④口③

口口⑤口
⑤⑦口⑤
口口口口 |⑤-----|
口口⑥口 |⑥---⑦-|
36
①③③① |①-----|
④口①⑤ |②-----|
口②口③ |③-----|
②④④② |④---⑤-|
37
③口口③ |①---②-|
口③④口 |③---④-|
口①②口
①口口①

口口口口
口⑦口口
⑤口口⑥ |⑤-----|
口⑤⑤口 |⑥---⑦-|
38
①口口① |①-----|
口口口① |②-----|
②口口口
②口口②

口③③⑤
③口口口
口口口④ |③-----|
口④④口 |④---⑤-|
39
①口口口 |①---②-|
口②③口 |③---④-|
口①①④
③口口③
40
口①①⑤ |①-②-③-|
②⑥⑦③ |④-----|
口口口口 |⑤-⑥-⑦-|
⑧④④⑧ |⑧-----|
41
③④口口 |①-②-③-|
④口口口 |④-----|
口①②④
口口④口

口口⑤⑦
口⑦口⑤
⑤⑥⑦口 |⑤---⑥-|
⑦⑤口口 |⑦-----|
42
①口⑤口 |①-②-③-|
口⑥②口 |④-----|
③口⑦口 |⑤-⑥-⑦-|
⑧④④⑧ |⑧-----|
43
①口④② |①-②-③-|
口口口④ |④-----|
④③口口
口④口口

口⑤口⑦
⑤⑦⑥口
口口⑦⑤ |⑤---⑥-|
⑦口⑤⑧ |⑦---⑧-|
44
⑥③③⑥ |①---②-|
③⑥⑥③ |③-----|
①口口⑤ |④---⑤-|
④①②口 |⑥-----|
45
⑨④④⑨ |①-②-③-|
④⑨⑨④ |④---⑤-|
⑧②③⑤ |⑥-⑦-⑧-|
口⑥⑦① |⑨-----|
46
⑥②③⑦ |①---②-|
②口口③ |--③---|
⑤①④口 |④---⑤-|
①⑤口④ |--⑥-⑦-|
47
口口⑦口 |①-②-③-|
①⑧④口 |④-⑤-⑥-|
口②⑨⑤ |⑦-⑧-⑨-|
③⑩⑥口 |⑩-----|
48
①口口口 |①---②-|
口口②口 |③-----|
口③口口
口口口口

口口口口
口④⑦口
口口口⑤ |④---⑤-|
口口⑥口 |⑥---⑦-|
49
口②口口 |①---②-|
③口⑦口 |③---④-|
口①口④ |⑤-----|
口口⑤⑥ |⑥---⑦-|
50
口口②① |①---②-|
口口口③ |③---④-|
④口口口
口口口口

口口⑧口
口⑥口口
口口⑦口 |⑤---⑥-|
口⑤口口 |⑦---⑧-|
51
口口⑩口 |①---②-|
⑨⑦②① |③---④-|
口③④⑥ |⑤-⑥-⑦-|
⑤⑤⑧⑧ |⑧-⑨-⑩-|
52
①①⑨④ |①---②-|
口⑤②口 |③---④-|
口③⑥口 |⑤-⑥-⑦-|
⑦口口⑧ |⑧---⑨-|
53
⑤⑦⑦⑤ |①---②-|
口②④⑧ |③---④-|
①⑦⑦③ |⑤---⑥-|
⑥①③⑥ |--⑦-⑧-|
54
⑩⑧口④ |①-②-③-|
①口⑤口 |④---⑤-|
⑥口⑨口 |⑥-⑦-⑧-|
口③②⑦ |⑨---⑩-|
55
④③⑤④ |①-----|
口②②口 |②-----|
口④④口 |③-----|
②口①② |④---⑤-|
56
口③口口 |①-②-③-|
③⑤②② |④-⑤-⑥-|
⑤口⑥④
①①④⑥

⑦⑨口口
⑨口口口
口⑦口口 |⑦---⑧-|
⑧⑧口口 |--⑨---|
57
口口口① |①-----|
口①①口 |②-----|
口②②口
口口口②

口③③口
③口⑤口
④口口口 |③-----|
口④④口 |④---⑤-|
58
①口④① |①---②-|
⑤③口⑤ |③---④-|
⑤①②⑤ |⑤-----|
③口口③ |------|
59
口口口口 |------|
口口口口 |------|
口口口口 |------|
口口口口 |------|
60
口口口口 |------|
口口口口 |------|
口口口口
口口口口

BPM: 139
口①②③
口口⑥口
口口口⑤ |--①②③-|
口口④口 |④-⑤-⑥-|
61
口口口口 |①-②-③-|
⑥口口③ |④-⑤-⑥-|
口⑤②口
④口口①

BPM: 135
口口口⑪
口⑨⑫口
⑧口口口 |⑦-⑧-⑨-|
口⑦⑩口 |⑩-⑪-⑫-|
62
口口口口 |①-②-③-|
口⑤口口 |④-⑤-⑥-|
④口⑥①
③②口口

BPM: 129
⑨⑫口口
口口⑪口
口⑩口口 |⑦-⑧-⑨-|
口口⑧⑦ |⑩-⑪-⑫-|
63
口口③口 |①-②-③-|
⑥②口口 |④-⑤-⑥-|
口口①⑤
④口口口

BPM: 110
口口口口
口口口口
⑧口口口 |⑦-⑧-⑨-|
口⑨口⑦

BPM: 100
口⑪口口
口⑫口口
口口⑩口
口口口口 |⑩-⑪--⑫--|

BPM: 70
64
口③④⑤ |①---②---③④⑤-|
口口口口 |------|
口②口口 |------|
口口口① |------|

不確定度: 0

最終更新:2015年05月07日 21:52