カーニバル
ケツメイシ

EXTREME

Level: 8
BPM: 150
Notes: 618

1
口口口口 |----|
口口口口 |----|
口口口口 |----|
口口口口 |----|
2
④③口口 |----|
口②口口 |①---|
口口口口 |②-③-|
口①口口 |--④-|
3
口⑤口口 |--①-|
④⑤口口 |②-③-|
①③口口 |④---|
②口口口 |⑤---|
4
口口③口 |----|
口口②④ |①---|
口口口口 |②-③-|
口口口① |--④-|
5
口口口⑤ |--①-|
口口④⑤ |②-③-|
口口①③ |④---|
口口②口 |⑤---|
6
口⑤④口 |----|
口⑤③口 |①-②-|
口口口② |③-④-|
口口①口 |--⑤-|
7
口口口口 |--①-|
②口口口 |②-③-|
①③口⑤ |④---|
口口④口 |⑤---|
8
口①①口 |①---|
口口口口 |----|
口口口口 |----|
口口口口 |----|
9
口④④口 |①--②|
口口①口 |--③-|
口②口口 |④---|
③⑥⑤③ |⑤-⑥-|
10
①口口① |①--②|
⑤③⑧④ |③-④-|
口⑦②⑨ |⑤-⑥⑦|
口口口⑥ |⑧-⑨-|
11
口⑤④口 |①--②|
⑤③口④ |③-④-|
①口②口 |⑤---|
口⑥⑦口 |⑥-⑦-|
12
①口口① |①--②|
④⑧③⑤ |③-④-|
⑨②⑦口 |⑤-⑥⑦|
⑥口口口 |⑧-⑨-|
13
口④⑤口 |①--②|
④口③⑤ |③-④-|
口②口① |⑤---|
口⑦⑥口 |⑥-⑦-|
14
①口口① |①--②|
⑤③⑧④ |③-④-|
口⑦②⑨ |⑤-⑥⑦|
口口口⑥ |⑧-⑨-|
15
口口④口 |①--②|
口③口④ |③-④-|
①口②口
口口口口

口⑤口口
⑤口口口
⑧口口⑦ |⑤-⑥-|
口⑥⑥口 |⑦-⑧-|
16
①③③① |①---|
口口口口 |②---|
口②②口 |③---|
⑤⑤④④ |④-⑤-|
17
口口口口 |①---|
口①①口 |②---|
②②口口
口口口口

④口口④
口④④口
口口③③ |③---|
口口口口 |④---|
18
口③口口 |--①-|
口口口② |②-③-|
口口口口
口①口口

口口口口
⑤口口口
口口④⑥ |④-⑤-|
口⑦口口 |⑥-⑦-|
19
⑥口口⑥ |①-②-|
口④①③ |③-④-|
⑤口口⑤ |⑤-⑥-|
②⑦⑦口 |--⑦-|
20
口口口口 |--①-|
②口①口 |②-③-|
口口口口
口口口③

口④口口
口口⑦口
⑥口口口 |④-⑤-|
口口⑤口 |⑥-⑦-|
21
口口④⑥ |①-②-|
③口口口 |③-④-|
口⑤口② |⑤-⑥-|
口①口口 |----|
22
③⑤口口 |①--②|
⑥⑤①④ |--③-|
②⑤④④ |④--⑤|
口⑤④口 |--⑥-|
23
③口口口 |①--②|
口口①口 |--③-|
口口口口
②口口口

口⑤口口
⑤⑤口④
⑤口④④ |④--⑤|
⑥口④口 |--⑥-|
24
口口口口 |①-②-|
口口①口 |③-④-|
④口口口
口②口③

口口口口
口口口⑤
口口⑤口 |⑤--⑥|
口⑦⑥口 |--⑦-|
25
②④④③ |①--②|
①④④⑤ |--③-|
口①口⑥ |④-⑤-|
口口口⑦ |⑥-⑦-|
26
⑤⑥口口 |①②③④|
口口口口 |⑤-⑥-|
口③④口
口①②口

口口⑦口
口⑩⑨⑧
⑪⑫口口 |⑦-⑧⑨|
口口口口 |⑩-⑪⑫|
27
②⑥口④ |①-②-|
③⑧⑦⑤ |③-④-|
口口①口 |⑤-⑥⑦|
口口口口 |⑧---|
28
口口口口 |①②③④|
③口口④ |⑤⑥⑦⑧|
⑦①②⑧
口⑤⑥口

⑪口口⑫
口⑬⑭口
口⑬⑭口 |⑨⑩⑪⑫|
⑨口口⑩ |⑬-⑭-|
29
⑦②②口 |-①--|
③⑥口口 |②-③-|
口口⑤口 |④-⑤-|
口①①④ |⑥-⑦-|
30
口口①① |①---|
口口①① |②---|
②②口口
②②口口

口③口口
口⑤⑥口
口口④口 |③-④-|
口口口口 |--⑤⑥|
31
①口口② |①②③④|
③口口④ |⑤⑥⑦⑧|
⑦口口⑧
口⑤⑥口

口⑨⑩口
⑬口口⑬
口⑪⑫口 |⑨⑩⑪⑫|
口口口口 |--⑬-|
32
⑥口口⑦ |①-②③|
口口口口 |④⑤⑥⑦|
④口口⑤
①②③①

口⑩⑩口
口⑧⑨口
口⑧⑨口 |⑧-⑨-|
口⑪⑪口 |⑩-⑪-|
33
②口⑦③ |①---|
④⑧口⑤ |②③④⑤|
⑥口⑨口 |⑥-⑦⑧|
①口口① |⑨---|
34
口④④口 |--①-|
口口③③ |②-③-|
②②⑥⑥ |④--⑤|
⑤⑤①① |--⑥-|
35
口口口口 |①--②|
②③③口 |--③-|
口口口口
口口①口

④口口④
口口口口
⑥口口⑤ |④---|
口⑥⑤口 |⑤-⑥-|
36
②⑤⑤③ |①--②|
口②③① |--③-|
口口①④ |④--⑤|
⑥口④⑥ |--⑥-|
37
④口口④ |①--②|
口②口② |--③-|
口口①口 |④---|
口③③口 |----|
38
⑤④④⑥ |--①-|
口⑤⑥③ |②-③-|
②②③口 |④--⑤|
口口①① |--⑥-|
39
口③③口 |①--②|
口口口口 |--③-|
口②口口
①口口口

口口口口
④口口④
口⑥⑥口 |④---|
口口⑤口 |⑤-⑥-|
40
①④口① |--①-|
口口③口 |----|
口口口口 |②--③|
口口②口 |--④-|
41
口口①口 |①-②③|
口口口② |--④-|
口口③口
口④口口

⑥⑥⑥⑥
⑤口口口
口口口口 |⑤---|
口口口口 |⑥---|
42
②口口② |①---|
口①①口 |----|
②①①② |②---|
口口口口 |----|
43
③口口④ |①-②-|
口⑤⑤口 |③-④-|
口⑤⑤口 |⑤---|
①口口② |----|
44
口口口口 |①-②-|
③⑤⑤④ |③-④-|
口⑤⑤口 |⑤---|
①口口② |----|
45
③口口④ |①-②-|
口⑤⑤口 |③-④-|
口⑤⑤口 |⑤---|
①口口② |----|
46
口口②② |①--②|
口⑦⑦⑥ |--③-|
③④⑤口 |④-⑤-|
口口①口 |⑥-⑦-|
47
②②口口 |①--②|
口口口口 |--③-|
口口口③
口①口口

口⑦⑦口
⑥口口口
口⑤④口 |④-⑤-|
口口口口 |⑥-⑦-|
48
口⑤⑤① |--①-|
口口③② |②-③-|
⑤④④⑤ |④---|
口口口口 |⑤---|
49
①口口口 |--①-|
②③口口 |②-③-|
口口口口
口口口口

⑦口口⑦
口口④口
口⑥⑤口 |④-⑤-|
口口口口 |⑥-⑦-|
50
口③④口 |①---|
①⑤⑥① |②---|
口⑦口口 |③④⑤⑥|
口②②口 |⑦---|
51
①④③① |①---|
②⑥⑤② |②---|
口口⑦口 |③④⑤⑥|
口口口口 |⑦---|
52
口口口口 |①---|
口口②口 |--②-|
①①口口
①①口口

口口口口
口口口口
口④③③ |③---|
口口③③ |--④-|
53
①①③③ |①---|
①①③③ |--②-|
口口②口 |③---|
④口④口 |--④-|
54
口②⑥口 |①-②-|
口口口口 |③-④-|
⑤③⑦① |⑤-⑥-|
口④口④ |⑦---|
55
①⑦⑧② |①②③④|
口③④口 |⑤⑥⑦⑧|
⑤口口⑥
口口口口

口口口口
⑭⑭口口
口⑨⑩口 |⑨⑩⑪⑫|
⑪⑬口⑫ |⑬-⑭-|
56
④③②① |①-②-|
⑨口口⑩ |③-④-|
口⑦⑧口 |⑤⑥⑦⑧|
⑪⑤⑥⑫ |⑨⑩⑪⑫|
57
口⑦⑦口 |①②③④|
⑧①②⑧ |⑤⑥-⑦|
③⑨⑨④ |--⑧-|
口⑤⑥口 |⑨---|
58
口口口口 |①---|
口口口口 |----|
口口口口 |----|
①口口① |----|
59
口②②口 |①---|
口口口口 |--②-|
口①①口 |----|
口口口口 |----|
60
口口口口 |①---|
口口口口 |----|
口口口口 |----|
①口口① |----|
61
口口口口 |①---|
②口口② |--②-|
②①①② |----|
口④③口 |③-④-|
62
①口口① |①--②|
⑤③⑧④ |③-④-|
口⑦②⑨ |⑤-⑥⑦|
口口口⑥ |⑧-⑨-|
63
口⑤④口 |①--②|
⑤③口④ |③-④-|
①口②口 |⑤---|
口⑥⑦口 |⑥-⑦-|
64
①口口① |①--②|
④⑧③⑤ |③-④-|
⑨②⑦口 |⑤-⑥⑦|
⑥口口口 |⑧-⑨-|
65
口④⑤口 |①--②|
④口③⑤ |③-④-|
口②口① |⑤---|
口⑦⑥口 |⑥-⑦-|
66
①口口① |①--②|
⑤③⑧④ |③-④-|
口⑦②⑨ |⑤-⑥⑦|
口口口⑥ |⑧-⑨-|
67
口口④口 |①--②|
口③口④ |③-④-|
①口②口
口口口口

口⑤口口
⑤口口口
⑧口口⑦ |⑤-⑥-|
口⑥⑥口 |⑦-⑧-|
68
①③③① |①---|
口口口口 |②---|
口②②口 |③---|
⑤⑤④④ |④-⑤-|
69
口口口口 |①---|
口①①口 |②---|
②②口口
口口口口

④口口④
口④④口
口口③③ |③---|
口口口口 |④---|
70
口口口口 |①---|
口口口口 |----|
口口口口 |----|
①①①① |----|

不確定度: 0

最終更新:2014年12月11日 22:40