ラブラブキュートなハピハピサンデー
Lisapyon♡

EXTREME

Level: 9
BPM: 165
Notes: 489

1
口口口口 |----|
口口口口 |----|
口口口口 |----|
口口口口 |----|
2
口口口口 |①-②-|
①②⑦⑧ |③-④-|
⑤⑥③④ |⑤-⑥-|
口口口口 |⑦-⑧-|
3
口口口口 |①-②-|
①②⑦⑧ |③-④-|
⑤⑥③④ |⑤-⑥-|
口口口口 |⑦-⑧-|
4
口口⑤口 |①-②-|
①②⑦⑧ |③-④-|
⑤⑥③④ |⑤-⑥-|
口口①口 |⑦-⑧-|
5
①②⑦⑧ |①-②-|
③口⑤口 |③-④-|
口口①口 |⑤-⑥-|
⑤⑥③④ |⑦-⑧-|
6
口④⑧口 |①-②-|
⑥①⑤② |③-④-|
⑤③⑦① |⑤-⑥-|
口口口口 |⑦-⑧-|
7
③口口③ |①-②-|
⑤口④⑤ |③-④-|
⑤②口⑤ |⑤---|
①口口① |----|
8
口⑧③① |①-②-|
④②⑦⑥ |③-④-|
⑧③①口 |⑤-⑥-|
口⑦⑥⑤ |⑦-⑧-|
9
口口口① |--①-|
②口口口 |②-③-|
口③①口
口口口口

口口口口
口口口口
⑤口⑦口 |④-⑤-|
⑥⑥④④ |⑥-⑦-|
10
口④⑧口 |①-②-|
⑥①⑤② |③-④-|
⑤③⑦① |⑤-⑥-|
口口口口 |⑦-⑧-|
11
③⑥口③ |①-②-|
⑤⑦④⑤ |③-④-|
⑤②口⑤ |⑤-⑥-|
①⑧口① |⑦-⑧-|
12
口⑦②① |①---|
③口⑥⑤ |②-③-|
⑦②①口 |④-⑤-|
口⑥⑤④ |⑥-⑦-|
13
口口口① |--①-|
②口⑦口 |②-③-|
⑤③①口 |④-⑤-|
⑥⑥④④ |⑥-⑦-|
14
①口口口 |①-②-|
口②口口 |③-④-|
⑤口④⑤ |⑤---|
口⑥⑥③ |⑥---|
15
口④口口 |①-②-|
①③②⑦ |③-④-|
口④⑥⑤ |⑤-⑥-|
口口口⑦ |⑦---|
16
②口口③ |①---|
⑤①④⑤ |②---|
口②③口 |③---|
①口口④ |④-⑤-|
17
口④口口 |--①-|
口①⑤口 |--②-|
②⑥口② |③-④-|
口口③口 |⑤-⑥-|
18
②口口口 |①-②-|
口③口口 |③---|
⑤口①⑤ |④---|
④口口④ |⑤---|
19
⑤口口⑥ |①-②-|
③⑤⑥① |③-④-|
⑤⑦口⑥ |⑤---|
口②④口 |⑥-⑦-|
20
口②④口 |①---|
①⑤口③ |②---|
②口口④ |③---|
口①③口 |④-⑤-|
21
⑥口口⑥ |①-②-|
口口②口 |③-④-|
⑤③①⑤ |⑤---|
口口④口 |⑥---|
22
口口口口 |①---|
口口⑤口 |②-③-|
口①②④ |④---|
③口口口 |⑤---|
23
口口口口 |①---|
②①口③ |②-③-|
口口④口 |④---|
口⑤口口 |⑤---|
24
⑦口口⑦ |①---|
口⑥口口 |②-③-|
口口④⑤ |④-⑤-|
③口①② |⑥-⑦-|
25
口口①口 |①---|
②④③② |--②-|
口口口口 |③---|
口口口口 |④---|
26
口口口口 |①---|
口口⑤口 |②-③-|
口①②④ |④---|
③口口口 |⑤---|
27
口口口口 |①---|
②①④⑥ |②-③-|
⑦⑤口③ |④-⑤-|
口口口口 |⑥-⑦-|
28
口口口⑦ |①---|
口口口口 |②-③-|
⑥口④⑤ |④-⑤-|
③口①② |⑥-⑦-|
29
口①口口 |①---|
口⑤⑥④ |--②-|
口口口口 |③-④-|
②口③口 |⑤-⑥-|
30
口口口口 |①---|
口口口口 |②-③-|
口①②口
③口口口

口口⑤⑥
口口口口
口⑦口④ |④-⑤-|
口口口口 |⑥-⑦-|
31
口口口口 |①---|
②①口③ |②-③-|
口口④口 |④---|
口⑤口口 |⑤---|
32
⑦口口⑦ |①---|
口⑥口口 |②-③-|
口口④⑤ |④-⑤-|
③口①② |⑥-⑦-|
33
口④①口 |①---|
②口③② |--②-|
④口口口 |③---|
口口口口 |④---|
34
口口①口 |①---|
口口②口 |②---|
口①口口
口②口口

④口⑤④
口口口③
口口口口 |③-④-|
口口③⑥ |⑤-⑥-|
35
口口⑦口 |①-②-|
口②口④ |③-④-|
①②③④ |--⑤-|
①⑤③⑥ |⑥-⑦-|
36
①口口④ |①---|
①③②④ |②---|
①③②④ |③---|
口③②口 |④---|
37
④③口⑤ |①-②-|
口口口⑥ |③-④-|
②④③⑦ |--⑤-|
口口口① |⑥-⑦-|
38
口口①口 |①-②-|
①②③⑤ |③-④-|
③⑤④⑥ |⑤---|
口⑥口⑦ |⑥-⑦-|
39
口②口④ |①---|
⑤③口口 |②-③-|
②口④口 |④---|
口⑤①口 |⑤---|
40
口口口口 |①---|
④②⑤① |②-③-|
口⑥③口 |④---|
②④①⑤ |⑤-⑥-|
41
口②口口 |①---|
口③口口 |②-③-|
②口口①
口口口口

口口口口
口口④口
口口口⑤ |④---|
口口口⑥ |⑤-⑥-|
42
口②①口 |①---|
口③④⑤ |②-③-|
②①口口 |④---|
口④⑤口 |⑤---|
43
①⑥⑤口 |①-②-|
口②口口 |③-④-|
⑥⑤③口 |⑤---|
口口口④ |⑥---|
44
口口口口 |①-②-|
口①③② |③-④-|
口④⑤口 |⑤---|
⑦⑥口口 |⑥-⑦-|
45
口口口口 |--①-|
口③④① |②-③-|
口②⑤⑥ |④-⑤-|
口⑦③④ |⑥-⑦-|
46
口口①口 |①-②-|
①②③⑤ |③-④-|
③⑤④⑥ |⑤---|
口⑥口口 |⑥---|
47
口②口④ |①---|
⑤③口口 |②-③-|
②口④口 |④---|
口⑤口① |⑤---|
48
口口口口 |①---|
④②⑤① |②-③-|
口⑥③口 |④---|
②④①⑤ |⑤-⑥-|
49
口③口口 |①-②-|
口④口口 |③-④-|
③口口①
口口②口

口口口口
口口⑤口
口口口⑥ |⑤---|
口口口⑦ |⑥-⑦-|
50
口②①口 |①---|
口③④⑤ |②-③-|
②①口口 |④---|
口④⑤口 |⑤---|
51
①⑥⑤口 |①-②-|
口②口口 |③-④-|
⑥⑤③口 |⑤---|
口口口④ |⑥---|
52
口口口口 |①---|
口①②口 |②-③-|
口口③口
口口①②

口口口口
口⑤口⑥
口口口④ |④---|
口口口口 |⑤-⑥-|
53
口口口口 |①-②-|
口口①口 |③-④-|
口②③口 |⑤---|
⑤④口⑥ |⑥---|
54
①口口口 |①---|
①①③③ |②---|
②③口口 |③---|
②②③③ |----|
55
①口③口 |①-②-|
①②③④ |③-④-|
①口③口
口口口口

⑥⑥口口
⑥口口口
口⑤口口 |⑤---|
⑤⑤口口 |⑥---|
56
口口口口 |①---|
口口①② |----|
口口口口 |②---|
口口②① |----|
57
口口口口 |①---|
①②口口 |②---|
口口口口
②①口口

③④口口
口口⑥⑤
口③④口 |③-④-|
口⑥⑤口 |⑤-⑥-|
58
口口口口 |①---|
口口口口 |----|
口口口口 |----|
①口口① |----|

不確定度: 0

最終更新:2014年12月12日 01:02