Got more raves?
E.G.G.「グルーヴコースター」より

BASIC

Level: 5
BPM: 266
Notes: 380

1
口口口口 |----|
口口口口 |----|
口口口口 |----|
口口口口
2
口口口口 |----|
口口口口 |----|
口口口口 |----|
口口口口
3
口口口口 |①---|
口口口口 |----|
口口口口 |----|
口口①口
4
口口口口 |----|
口口口口 |----|
口口口口 |----|
口口口口
5
口口口口 |①---|
口口口口 |----|
口口①口 |----|
口口口口
6
口口口口 |----|
口口口口 |----|
口口口口 |----|
口口口口
7
口口口口 |①---|
口口①口 |----|
口口口口 |----|
口口口口
8
口口口口 |----|
口口口口 |----|
口口口口 |----|
口口口口
9
口口①口 |①---|
口口口口 |----|
口口口口 |----|
口口口口
10
口口口口 |----|
口口口口 |----|
口口口口 |----|
口口口口
11
口①口口 |①---|
口口口口 |----|
口口口口 |----|
口口口口
12
口口口口 |----|
口口口口 |----|
口口口口 |----|
口口口口
13
口口口口 |①---|
口口口口 |----|
②口口② |----|
口①①口 |②---|
14
口口口口 |----|
口口口口 |----|
口口口口 |①---|
口①①口 |----|
15
口口口口 |----|
①口口① |①---|
口口口口 |----|
口口口口
16
口口口口 |----|
口口口口 |①---|
口口口口 |----|
口①①口 |----|
17
①口口① |①---|
口口口口 |----|
口口口口 |----|
口②②口 |②---|
18
口①①口 |----|
口口口口 |----|
口口口口 |①---|
口口口口 |----|
19
口口口口 |①---|
①口口口 |----|
口口口口 |----|
口口口口
20
口口口口 |①---|
口口口口 |----|
口口口口 |----|
口口口①
21
口口口口 |①---|
口口①口 |----|
口口口口 |----|
口口口口
22
口口口口 |①---|
口口口口 |----|
口口口口 |----|
①口口口
23
口口口口 |①---|
口口口口 |----|
口口①口 |----|
口口口口
24
口口口口 |①---|
口口口口 |----|
口口口口 |----|
口口口①
25
口口口口 |①---|
口①口口 |----|
口口口口 |----|
口口口口
26
口口口口 |①---|
口口口口 |----|
口口口口 |----|
①口口口
27
口口口① |①---|
口②口① |----|
口口口口 |②---|
口口口口
28
口口口口 |----|
口口①口 |①---|
口口口口 |----|
口口口口
29
①口口口 |①---|
①口口口 |----|
口口②口 |②---|
口口口口
30
口口口口 |----|
口口口口 |①---|
①口口口 |----|
①口口口
31
口口口口 |①---|
口②①口 |----|
口口口口 |②---|
口口口口
32
口口口口 |----|
口口口口 |①---|
口口口① |----|
口口口①
33
口口口口 |①---|
口口口口 |----|
口①口口 |----|
口口口口
34
口口口① |①---|
口口口① |②---|
口口口口 |③---|
口②③口
35
口③口口 |①---|
口①②口 |②---|
口口口口 |③---|
口口口口
36
口口口① |①---|
口口口① |②---|
口②③口 |③---|
口口口口
37
口口口口 |①---|
口口口口 |②---|
③口口口 |③---|
③①②口
38
口②①口 |①---|
口口③口 |②---|
口口口口 |③---|
口口口口
39
口口口口 |①---|
口①口口 |②---|
口③口② |③---|
口口口②
40
口②③口 |①---|
口口口口 |②---|
口口①口 |③---|
口口口口
41
①口口口 |①---|
①口口口 |②---|
口口口口 |③---|
口③②口
42
口口③口 |①---|
口②①口 |②---|
口口口口 |③---|
口口口口
43
①口口口 |①---|
①口口口 |②---|
口③②口 |③---|
口口口口
44
口口口口 |①---|
口口口口 |②---|
口口口③ |③---|
口②①③
45
口①②口 |①---|
口③口口 |②---|
口口口口 |③---|
口口口口
46
口口口口 |①---|
口口①口 |②---|
②口③口 |③---|
②口口口
47
口③②口 |①---|
口口口口 |②---|
口①口口 |③---|
口口口口
48
口口口口 |①---|
口口口口 |----|
口口口口 |----|
口口①口 |----|
49
口口口口 |----|
口口口口 |--①-|
口①①口 |----|
口口口口
50
口口口口 |----|
口口口口 |----|
口口口口 |----|
口口口口 |----|
51
口口口口 |----|
口口口口 |----|
口口口口 |----|
口口口口
52
口口口① |----|
口口口口 |----|
口口口口 |----|
口口口口 |①---|
53
③②①口 |①---|
口口口口 |②---|
口口口口 |③---|
口口口口
54
口口口口 |①---|
④③②① |②---|
口口口口 |③---|
口口口口 |④---|
55
口口口口 |①---|
口口口口 |----|
口口口① |----|
口口口口
56
口口口口 |----|
口口口口 |①---|
①口口口 |----|
①口口口 |----|
57
口口口口 |①---|
口口口口 |----|
口口口① |----|
口口口①
58
①口口② |①---|
①口口② |----|
口口口口 |----|
口口口口 |②---|
59
口口口口 |----|
口口口口 |----|
口口口口 |①---|
口①①口
60
口③③口 |--①-|
口②②口 |----|
口①①口 |②---|
口口口口 |--③-|
61
①口口① |----|
口口口口 |①---|
口口口口 |----|
口口口口
62
口口口口 |----|
口口口口 |①---|
①②③口 |②---|
口口口口 |③---|
63
口口口口 |①---|
②③口口 |②---|
口口口① |③---|
口口口口
64
口口口口 |①---|
口口①口 |----|
口口口口 |----|
口口口口
65
口口口口 |----|
口口口口 |----|
口口口口 |----|
口口口口
66
口口口口 |①---|
口口口口 |--②-|
①口口② |----|
口口口口
67
口口口口 |①---|
①口口口 |----|
口口口口
口口口口
68
口口口口 |①---|
口①②口 |②---|
口③口口 |③---|
口口口口
69
口口口口 |①---|
口口口口 |②---|
口口①口
口②口口
70
口口口口 |①---|
口口口口 |--②-|
②口口① |----|
口口口口
71
口口口口 |①---|
口口口① |----|
口口口口
口口口口
72
口②①口 |①---|
口口③口 |②---|
口口口口 |③---|
口口口口
73
口口口口 |①---|
口①口口 |②---|
口口②口
口口口口
74
口口口口 |①---|
口口口口 |--②-|
①口口② |----|
口口口口
75
口口口口 |①---|
①口口口 |----|
口口口口
口口口口
76
口①②口 |①---|
口③口口 |②---|
口口口口 |③---|
口口口口
77
口口口口 |①---|
口口①口 |②---|
口②口口
口口口口
78
口口口口 |①---|
②口口① |----|
口口口口 |②---|
口口口口
79
口①①口 |----|
口口口口 |①---|
口口口口 |----|
口口口口
80
口口口口 |①---|
口口口口 |--②-|
口②②口 |----|
口①①口
81
口②②口 |①---|
口①①口 |--②-|
口口口口 |----|
口口口口
82
口口口口 |①---|
口口口口 |--②-|
②口口① |----|
口口口口
83
口口口口 |①---|
口口口① |----|
口口口口
口口口口
84
口口口口 |①---|
口②①口 |②---|
口口③口 |③---|
口口口口
85
口口口口 |①---|
口口口口 |②---|
口①口口
口口②口
86
口口口口 |①---|
口口口口 |--②-|
①口口② |----|
口口口口
87
口口口口 |①---|
①口口口 |----|
口口口口
口口口口
88
口①②口 |①---|
口③口口 |②---|
口口口口 |③---|
口口口口
89
口口口口 |①---|
口口①口 |②---|
口②口口
口口口口
90
口口口口 |①---|
口口口口 |--②-|
②口口① |----|
口口口口
91
口口口口 |①---|
口口口① |----|
口口口口
口口口口
92
口口口口 |①---|
口口口口 |②---|
口口③口 |③---|
口②①口
93
口口口口 |①---|
口口②口 |②---|
口①口口
口口口口
94
口口口① |①---|
口口口② |--②-|
③口口口 |----|
口口口口 |③---|
95
口口口口 |①---|
口口口口 |②---|
口①②口 |----|
口口口口 |----|
96
口口口口 |----|
口口口口 |----|
口口口口 |----|
口口口口
97
①口口口 |----|
②口口口 |①---|
口口口口 |--②-|
口口口口 |----|
98
口口口口 |①---|
口口口口 |②---|
④③②① |③---|
口口口口 |④---|
99
口口口口 |----|
口口口口 |----|
口口口口 |----|
口口口口 |----|
100
②口口① |--①-|
口口口③ |----|
口口口口 |②---|
口口口口 |③---|
101
口口口口 |--①-|
口②②口 |--②-|
口①①口 |----|
口口口口 |----|
102
口口口口 |----|
口口口口 |----|
口口口口 |----|
口口口口
103
口口口口 |----|
口口口口 |--①-|
口口口口 |----|
②口口① |②---|
104
口口口口 |①---|
口口口① |--②-|
口②③口 |--③-|
口口口口 |----|
105
口①①口 |①---|
口口口口 |----|
口口口口 |----|
口口口口 |----|
106
口口口口 |①---|
口口口口 |----|
口口口口 |----|
口口①口
107
口口口口 |----|
口口口口 |----|
口口口口
口口口口
108
口口口口 |①---|
口口口口 |----|
口口①口 |----|
口口口口
109
口口口口 |----|
口口口口 |----|
口口口口
口口口口
110
口口口口 |①---|
口口①口 |----|
口口口口 |----|
口口口口
111
口口口口 |----|
口口口口 |----|
口口口口
口口口口
112
口口①口 |①---|
口口口口 |----|
口口口口 |----|
口口口口
113
口口口口 |----|
口口口口 |----|
口口口口
口口口口
114
口①口口 |①---|
口口口口 |----|
口口口口 |----|
口口口口
115
口口口口 |----|
口口口口 |----|
口口口口
口口口口
116
口口口口 |----|
口口口口 |----|
口口口口 |----|
口口口口
117
口口口口 |----|
口口口口 |----|
口口口口
口口口口
118
口口口口 |----|
口口口口 |----|
口口口口 |----|
口口口口
119
口口口口 |----|
口口口口 |----|
口口口口
口口口口
120
口口口口 |----|
口口口口 |----|
口口口口 |----|
口口口口
121
口口口口 |----|
口口口口 |----|
口口口口
口口口口
122
口口口① |①---|
口②口① |----|
口口口口 |②---|
口口口口
123
口口口口 |----|
口口①口 |①---|
口口口口 |----|
口口口口
124
①口口口 |①---|
①口口口 |----|
口口②口 |②---|
口口口口
125
口口口口 |----|
口口口口 |①---|
①口口口 |----|
①口口口
126
口口口口 |①---|
口②①口 |----|
口口口口 |②---|
口口口口
127
口口口口 |----|
口口口口 |①---|
口口口① |----|
口口口①
128
口口口口 |①---|
口口口口 |----|
口①口口 |----|
口口口口
129
口口口① |①---|
口口口① |②---|
口口口口 |③---|
口②③口
130
口③口口 |①---|
口①②口 |②---|
口口口口 |③---|
口口口口
131
口口口① |①---|
口口口① |②---|
口②③口 |③---|
口口口口
132
口口口口 |①---|
口口口口 |②---|
③口口口 |③---|
③①②口
133
口②①口 |①---|
口口③口 |②---|
口口口口 |③---|
口口口口
134
口口口口 |①---|
口①口口 |②---|
口③口② |③---|
口口口②
135
口②③口 |①---|
口口口口 |②---|
口口①口 |③---|
口口口口
136
口口口口 |①---|
口口口口 |----|
口口口口 |----|
①①口口
137
口口口口 |①---|
口口口口 |----|
口口口① |----|
口口口口
138
口口口口 |①---|
口口口口 |----|
①口口口 |----|
口口口口
139
口口口口 |①---|
①口口口 |----|
口口口口
口口口口
140
口口口口 |①---|
口①①口 |----|
口②②口 |②---|
口口口口
141
口口口口 |----|
口口口口 |①---|
口口口口
口①①口
142
口口口口 |①---|
口口口口 |----|
口口口① |----|
口口口口
143
口口口口 |①---|
口口口① |----|
口口口口
口口口口
144
口①①口 |①---|
口②②口 |----|
口口口口 |②---|
口口口口
145
口口口口 |----|
口口口口 |①---|
口①①口
口口口口
146
口口口口 |①---|
口口口口 |----|
①口口口 |----|
口口口口
147
口口口口 |①---|
①口口口 |----|
口口口口
口口口口
148
口①①口 |①---|
口②②口 |----|
口口口口 |②---|
口口口口
149
口口口口 |----|
口口口口 |①---|
口①①口
口口口口
150
口口口口 |①---|
②口口① |----|
口口口口 |②---|
口口口口
151
口①①口 |----|
口口口口 |①---|
口口口口 |----|
口口口口
152
口口口口 |①---|
口口口口 |--②-|
口②②口 |----|
口①①口
153
口②②口 |①---|
口①①口 |--②-|
口口口口 |----|
口口口口
154
口口口口 |①---|
口口口口 |--②-|
①口口② |----|
口口口口
155
口口口口 |①---|
①口口口 |----|
口口口口
口口口口
156
口口口口 |①---|
口①②口 |②---|
口③口口 |③---|
口口口口
157
口口口口 |①---|
口口口口 |②---|
口口①口
口②口口
158
口口口口 |①---|
口口口口 |--②-|
②口口① |----|
口口口口
159
口口口口 |①---|
口口口① |----|
口口口口
口口口口
160
口②①口 |①---|
口口③口 |②---|
口口口口 |③---|
口口口口
161
口口口口 |①---|
口①口口 |②---|
口口②口
口口口口
162
口口口口 |①---|
口口口口 |--②-|
①口口② |----|
口口口口
163
口口口口 |①---|
①口口口 |----|
口口口口
口口口口
164
口口口口 |①---|
口口口口 |②---|
口③口口 |③---|
口①②口
165
口口口口 |①---|
口②口口 |②---|
口口①口
口口口口
166
口③②① |----|
口口口口 |①---|
口口口口 |②---|
口口口口 |③---|
167
口口口口 |----|
口③②① |①---|
口口口口 |②---|
口口口口 |③---|
168
口口口口 |①---|
①口口口 |②---|
口口口② |----|
口口口口 |----|
169
口口口① |①---|
口口口① |②---|
口口口口 |③---|
口②③口
170
口③口口 |①---|
口①②口 |②---|
口口口口 |③---|
口口口口
171
口口口① |①---|
口口口① |②---|
口②③口 |③---|
口口口口
172
口口口口 |①---|
口口口口 |②---|
③口口口 |③---|
③①②口
173
口②①口 |①---|
口口③口 |②---|
口口口口 |③---|
口口口口
174
口口口口 |①---|
口①口口 |②---|
口③口② |③---|
口口口②
175
口②③口 |①---|
口口口口 |②---|
口口①口 |③---|
口口口口
176
①口口口 |①---|
①口口口 |②---|
口口口口 |③---|
口③②口
177
口口③口 |①---|
口②①口 |②---|
口口口口 |③---|
口口口口
178
①口口口 |①---|
①口口口 |②---|
口③②口 |③---|
口口口口
179
口口口口 |①---|
口口口口 |②---|
口口口③ |③---|
口②①③
180
口①②口 |①---|
口③口口 |②---|
口口口口 |③---|
口口口口
181
口口口口 |①---|
口口①口 |②---|
②口③口 |③---|
②口口口
182
口③②口 |①---|
口口口口 |②---|
口①口口 |③---|
口口口口

不確定度: 0

最終更新:2014年11月06日 17:36