Starlight Parade
肥塚良彦

EXTREME

Level: 8
BPM: 131
Notes: 546

1
口口口① |----|
口口口口 |----|
口口①口 |----|
口口口口 |--①-|
2
③②⑤口 |①②--|
⑥①④⑨ |③-④⑤|
⑧③口⑦ |⑥-⑦-|
口口口口 |⑧-⑨-|
3
口④口① |----|
③口⑤口 |①---|
口②口① |②-③-|
口口口口 |④-⑤-|
4
口口口口 |--①-|
③①口口 |②-③-|
①③②口
口②③口

口口④口
口⑤口口
⑥口口口 |--④-|
口口口口 |⑤-⑥-|
5
口④口口 |--①-|
口⑤口③ |②-③-|
口⑥②口 |--④-|
口①口口 |⑤-⑥-|
6
口①②③ |----|
口④④④ |----|
口①②③ |①-②-|
口口口口 |③-④-|
7
口③③口 |----|
口口④口 |----|
口②②④ |①-②-|
口①①口 |③-④-|
8
口口口口 |--①-|
口①口口 |②-③-|
①③③口
口②②口

口口④口
口口⑤④
口口口⑤ |--④-|
口口⑥⑥ |⑤-⑥-|
9
口①口口 |--①-|
①②口口 |②-③-|
②口口口
③③口口

⑤口口④
口⑥⑥口
口⑤④口 |--④-|
口口口口 |⑤-⑥-|
10
口口①口 |--①-|
⑤④口② |-②--|
⑥口③口 |③-④-|
⑦口口口 |⑤⑥⑦-|
11
口①口口 |①---|
②③①口 |--②-|
口②口口 |③--④|
⑤④⑤口 |--⑤-|
12
口③②口 |----|
口①①口 |①-②-|
③口口② |--③-|
口④④口 |--④-|
13
①②②③ |----|
口口④口 |--①-|
①④口③ |②-③-|
口口口口 |--④-|
14
①②口④ |--①-|
口②口口 |--②-|
口口③口 |--③-|
①口③④ |--④-|
15
口口口口 |①-②-|
口口②① |③-④-|
口口③④
口口口口

口⑤⑥口
口口口口
口⑤⑥口 |--⑤-|
口口口口 |--⑥-|
16
①⑤④② |----|
口③口口 |①-②-|
①口③② |--③-|
口④⑤口 |④-⑤-|
17
口口口口 |--①-|
②口口① |②---|
②口口① |----|
口口口口 |----|
18
①口口④ |①---|
②口口③ |②---|
口②③口 |③---|
①口口④ |④---|
19
③①①② |①---|
口④④口 |--②-|
口③②口 |③--④|
口⑤⑤口 |--⑤-|
20
口②①口 |----|
口口口口 |①-②-|
②③③① |--③-|
口口口④ |--④-|
21
①口口口 |----|
口②口口 |--①-|
口口③④ |②-③-|
口口④口 |--④-|
22
②①⑤口 |--①-|
③④口⑤ |--②-|
③口④口 |--③-|
②①口口 |--④⑤|
23
⑤④口① |--①-|
④口③⑦ |②-③④|
口③口口 |--⑤-|
口⑥②⑦ |⑥-⑦-|
24
口②②口 |--①-|
①口口口 |②---|
口口口口
①口口口

口口⑩口
口⑨口⑩
③④⑨口 |-③④⑤⑥⑦|
⑧⑦⑥⑤ |⑧-⑨⑩|
25
⑤④口① |--①-|
④口③口 |②-③④|
⑦③口⑦ |--⑤-|
口⑥②口 |⑥-⑦-|
26
口①①口 |--①-|
①口口① |----|
口口口口
口口口口

口口口口
④③②口
⑤⑤⑤口 |②-③-|
④③②口 |④-⑤-|
27
口①①② |----|
口④口② |----|
口④③③ |①-②-|
口口口口 |③-④-|
28
口口口口 |--①-|
②口①口 |②-③-|
③口③口
②口①口

口④口口
口口⑤口
口口口⑥ |--④-|
口口口口 |⑤-⑥-|
29
口口④口 |--①-|
③口⑤口 |②-③-|
口②⑥口 |--④-|
口口①口 |⑤-⑥-|
30
口口口口 |----|
口口口口 |----|
口口口口 |----|
口口口口 |----|
31
口③②④ |①---|
①口口① |--②-|
口口口口 |--③-|
④②③口 |--④-|
32
口口口口 |--①-|
②①口③ |②-③-|
③口①②
口口口口

口④口口
口口⑤口
口口口⑥ |--④-|
口口口口 |⑤-⑥-|
33
⑨⑦口③ |①②③④|
⑥⑧口口 |⑤-⑥⑦|
④②口口 |-⑧⑨-|
①⑤口口 |----|
34
口口⑥⑧ |①②-③|
口口⑦⑤ |④-⑤⑥|
口口②④ |-⑦⑧-|
口口③① |----|
35
①口④口 |①-②-|
①⑤④⑤ |③-④-|
③⑥②⑥ |--⑤-|
③⑦②⑦ |⑥-⑦-|
36
④口口口 |--①-|
③口③口 |②-③-|
②④②口 |----|
①口①口 |--④-|
37
口④④② |--①-|
口①③口 |--②-|
①口②③ |--③-|
口口口口 |--④-|
38
口⑥⑤口 |①-②-|
口⑤⑥口 |③-④-|
口②④口 |--⑤-|
口③①口 |⑥---|
39
⑧⑦⑩⑨ |①②③④|
⑥⑤⑫⑪ |⑤⑥⑦⑧|
④③⑭⑬ |⑨⑩⑪⑫|
②①⑯⑮ |⑬⑭⑮⑯|
40
④口口口 |①-②-|
②②⑦⑥ |③-④⑤|
③③⑤⑤ |--⑥-|
①①⑦⑥ |-⑦--|
41
③③口口 |①--②|
④①④口 |--③-|
②②⑥口 |--④-|
口①口⑤ |⑤-⑥-|
42
口口口口 |--①-|
口口口口 |②-③-|
口③口①
②口①口

④⑦④口
口⑤⑥口
口口口⑦ |④-⑤-|
口口口口 |⑥-⑦-|
43
口口口① |--①-|
③口口② |----|
口①口口 |----|
③口口② |②-③-|
44
口⑤⑤口 |①②-③|
⑦④④⑥ |-④-⑤|
③②口③ |----|
⑦口①⑥ |⑥-⑦-|
45
④⑤⑤④ |①②-③|
口口口口 |-④-⑤|
③口②③
口①口口

口口口口
口⑦⑥口
口⑥⑦口 |----|
口口口口 |⑥-⑦-|
46
口口口口 |--①-|
①③②④ |--②-|
①②③④ |--③-|
口口口口 |--④-|
47
③②①口 |----|
口口口口 |①---|
口口口口 |②---|
③②①口 |③---|
48
口口口④ |①-②-|
⑥⑦②② |③-④⑤|
⑤⑤③③ |--⑥-|
⑥⑦①① |-⑦--|
49
口口③③ |①--②|
口口①口 |--③-|
口口②②
口口①口

口口口口
口④口④
口口⑥口 |--④-|
口口口⑤ |⑤-⑥-|
50
口口口口 |--①-|
口口口口 |②-③-|
口③口①
②口①口

④⑦④口
口⑤⑥口
口口口⑦ |④-⑤-|
口口口口 |⑥-⑦-|
51
口口口① |--①-|
口口口口 |----|
口①③② |----|
口口②③ |②-③-|
52
口①④口 |--①-|
①⑤②④ |②-③-|
⑥②⑤③ |--④-|
口⑥③口 |⑤-⑥-|
53
口③⑥口 |--①-|
③⑤②⑥ |②-③-|
④②⑤① |--④-|
口④①口 |⑤-⑥-|
54
②口口口 |--①-|
口口①口 |②---|
口①口口 |----|
口口口② |----|
55
⑦⑥⑤④ |①-②-|
⑧①②③ |③-④-|
⑧①②③ |⑤-⑥-|
⑦⑥⑤④ |⑦-⑧-|
56
⑩⑪③② |-①②③|
口⑨①④ |④-⑤⑥|
⑦⑧口口 |-⑦⑧-|
⑤⑥口口 |-⑨⑩⑪|
57
口口口口 |①-②③|
①⑤④⑤ |-④-⑤|
口口④口
口口③②

⑥口口⑦
口口口口
口⑥⑦口 |----|
口口口口 |⑥--⑦|
58
口口口口 |----|
口口口口 |----|
口口口口 |----|
口口口口 |----|
59
口口口口 |----|
口口口口 |----|
口口口口 |----|
口口口口 |----|
60
⑩⑪③② |-①②③|
口⑨①④ |④-⑤⑥|
⑦⑧口口 |-⑦⑧-|
⑤⑥口口 |-⑨⑩⑪|
61
口口口口 |①-②③|
①⑤④⑤ |-④-⑤|
口口④口
口口③②

⑥口口⑦
口口口口
口⑥⑦口 |----|
口口口口 |⑥--⑦|
62
口口口① |----|
口口口口 |----|
口口①口 |----|
口口口口 |--①-|
63
③②⑤口 |①②--|
口①④口 |③-④⑤|
口③口口 |----|
口口口口 |----|


不确定度: 0

最終更新:2012年11月08日 18:37