Got more raves?
E.G.G.「グルーヴコースター」より

ADVANCED

Level: 8
BPM: 266
Notes: 454

1
口口口口 |----|
口口口口 |----|
口口口口 |----|
口口口口
2
口口口口 |----|
口口口口 |----|
口口口口 |----|
口口口口
3
口口口口 |①---|
口口口口 |----|
口口口口 |----|
口①①口
4
口口口口 |----|
口口口口 |----|
口口口口 |----|
口口口口
5
口口口口 |①---|
口口口口 |----|
口①①口 |----|
口口口口
6
口口口口 |----|
口口口口 |----|
口口口口 |----|
口口口口
7
口口口口 |①---|
口①①口 |----|
口口口口 |----|
口口口口
8
口口口口 |----|
口口口口 |----|
口口口口 |----|
口口口口
9
口①①口 |①---|
口口口口 |----|
口口口口 |----|
口口口口
10
口口口口 |----|
口口口口 |----|
口口口口 |----|
口口口口
11
①口口① |①---|
口口口口 |----|
口口口口 |----|
口口口口
12
口口口口 |----|
口口口口 |----|
口口口口 |----|
口口口口
13
口口口口 |①---|
口口口口 |②---|
④口口③ |③---|
②口口① |④---|
14
口②③口 |①---|
口④口① |②---|
口口口口 |③---|
口口口口 |④---|
15
口口口口 |①---|
口口①口 |②---|
口②口口 |③---|
口口③口
16
口口口口 |①---|
口口口④ |②---|
③口口② |③---|
口①口口 |④---|
17
①口口② |①---|
③⑤④口 |②---|
口口口口 |③---|
口口口口 |④-⑤-|
18
口口口口 |①-②-|
口口口⑤ |③---|
口②①④ |④---|
口口口③ |⑤---|
19
口口口① |①---|
口口口口 |----|
口口口口 |----|
口口口口
20
口口口口 |①---|
口口口口 |----|
口口口口 |----|
口口口①
21
口口口口 |①---|
口①①口 |----|
口口口口 |----|
口口口口
22
口口口口 |①---|
口口口口 |----|
口口口口 |----|
①口口口
23
口口口口 |①---|
口口口口 |----|
口①①口 |----|
口口口口
24
口口口口 |①---|
口口口口 |----|
口口口口 |----|
口口口①
25
口口口口 |①---|
口①①口 |----|
口口口口 |----|
口口口口
26
口口口口 |①---|
口口口口 |----|
口口口口 |----|
①口口口
27
口口口① |①---|
口口口② |②---|
口口口③ |③---|
口口口口
28
口口口口 |①---|
口口口口 |②---|
口口③口 |③---|
口口②①
29
①口口口 |①---|
②口口口 |②---|
③口口口 |③---|
口口口口
30
口口口③ |①---|
口口口口 |②---|
口口口口 |③---|
①②口口
31
口口①口 |①---|
口口②口 |②---|
口口③口 |③---|
口口口口
32
②③口口 |①---|
口口口口 |②---|
口口口口 |③---|
口口①口
33
口口口口 |①---|
口①口口 |②---|
口②口口 |③---|
口③口口
34
口口口① |①---|
口口口② |②---|
口口口③ |③---|
口口口口
35
口口口口 |①---|
口口口口 |②---|
口口①口 |③---|
口口③②
36
①口口口 |①---|
②口口口 |②---|
③口口口 |③---|
口口口口
37
口口口③ |①---|
口口口口 |②---|
口①口口 |③---|
②口口口
38
口口口口 |①---|
口口②① |②---|
口口口③ |③---|
口口口口
39
②口口口 |①---|
③口口口 |②---|
口口①口 |③---|
口口口口
40
口口口口 |①---|
口①口口 |②---|
②③口口 |③---|
口口口口
41
口口口① |①---|
口口③② |②---|
口口口口 |③---|
口口口口
42
口口口口 |①---|
口口口口 |②---|
口口①口 |③---|
口口②③
43
①口口口 |①---|
②③口口 |②---|
口口口口 |③---|
口口口口
44
口口口③ |①---|
口口口口 |②---|
口①口口 |③---|
口②口口
45
口口口口 |①---|
口口口① |②---|
口口口② |③---|
口口口③
46
②口口口 |①---|
③口口口 |②---|
口口口口 |③---|
口口①口
47
口口口口 |①---|
口口口口 |②---|
①口口口 |③---|
②③口口
48
口口口口 |①---|
口口口口 |----|
口口口② |----|
口口口① |②---|
49
口口口口 |①---|
②口口③ |②---|
①口口口 |③---|
口口口口
50
口口口① |----|
口口口口 |----|
②口口口 |①---|
口口口口 |②---|
51
口口口口 |①---|
①口口口 |②---|
口口口口 |----|
口口口②
52
口口口口 |----|
口口口③ |①---|
②口口① |②---|
口口口口 |③---|
53
口口口口 |①---|
③②①口 |②---|
口口口口 |③---|
口口口口
54
口口口口 |①---|
口口口口 |②---|
④③②① |③---|
口口口口 |④---|
55
口口口口 |①---|
口口口口 |②---|
口口口口 |③---|
口③②①
56
口口口口 |----|
口口口① |①---|
①口口口 |----|
口口口口 |----|
57
口口口口 |①---|
①口口口 |----|
口口口① |----|
口口口口
58
②口口① |①---|
口口口口 |----|
口口口口 |----|
①口口② |②---|
59
口口口口 |----|
口口口口 |----|
①口口口 |①---|
口口口口
60
口口口口 |①---|
④口口口 |②---|
口①②③ |③---|
口口口口 |④---|
61
口口口口 |①---|
口①②③ |②---|
口口口口 |③---|
口口口口
62
①②③口 |----|
口口口口 |①---|
口口口口 |②---|
口口口口 |③---|
63
口口口① |①---|
②③口口 |②---|
口口口口 |③---|
口口口口
64
口口口口 |①---|
口口①口 |----|
口口口口 |----|
①口口口
65
口口口口 |①---|
口口口口 |----|
①口口口 |----|
口口口口
66
口口②口 |①---|
口口口口 |--②-|
口口口口 |----|
口口口①
67
口口口口 |①---|
口口口② |②---|
①口口口
口口口口
68
口口口口 |①---|
口口口口 |--②-|
口③口口 |--③-|
①口口②
69
口口口口 |①-②-|
口口口口 |③---|
口口①口
口②③口
70
口②口口 |①---|
口口口口 |--②-|
口口口口 |----|
①口口口
71
口口口口 |①---|
②口口口 |②---|
口口口①
口口口口
72
口口口① |①---|
口②③口 |--②-|
口④口口 |③-④-|
口口口口
73
口口口口 |①-②-|
口口口口 |③-④-|
口口①口
④②③口
74
口②口口 |①---|
口口口口 |--②-|
口口口口 |----|
口口口①
75
口口口口 |①---|
②口口口 |②---|
口口口①
口口口口
76
口②③① |①---|
口④口口 |--②-|
口口口口 |③-④-|
口口口口
77
口口口口 |①-②-|
口口①口 |③-④-|
口②③口
口④口口
78
口③③口 |①-②-|
②口口口 |----|
口口口口 |--③-|
口口①口
79
口口口口 |----|
口口口口 |①---|
口口口口 |----|
①口口①
80
口口口口 |①---|
口口口口 |--②-|
口②②口 |----|
口①①口
81
口口口口 |①---|
②口口② |--②-|
①口口① |----|
口口口口
82
口口②口 |①---|
口口口口 |--②-|
口口口口 |----|
口口口①
83
口口口口 |①---|
口口口② |②---|
①口口口
口口口口
84
口口口口 |①---|
口口口口 |--②-|
口③口口 |--③-|
①口口②
85
口口口口 |①-②-|
口口口口 |③---|
口口①口
口②③口
86
口②口口 |①---|
口口口口 |--②-|
口口口口 |----|
①口口口
87
口口口口 |①---|
②口口口 |②---|
口口口①
口口口口
88
口口口① |①---|
口②③口 |--②-|
口④口口 |③-④-|
口口口口
89
口口口口 |①-②-|
口口口口 |③-④-|
口口①口
④②③口
90
口②口口 |①---|
口口口口 |--②-|
口口口口 |----|
口口口①
91
口口口口 |①---|
②口口口 |②---|
口口口①
口口口口
92
口口口口 |①---|
口口口口 |--②-|
口②口口 |----|
口口①口
93
口口口口 |①---|
口口口口 |②---|
②口口①
②口口①
94
口②①口 |①---|
口②①口 |--②-|
口口口口 |----|
口口③口 |③---|
95
口口口口 |①---|
口口②口 |②---|
口①口口 |----|
口口口口 |----|
96
口口口口 |----|
口口口口 |----|
口口口口 |----|
口口口口
97
①口口② |----|
①口口② |①---|
口口口口 |--②-|
口口口口 |----|
98
口口④口 |①---|
口③口口 |②---|
口口②口 |③---|
口①口口 |④---|
99
口口口口 |----|
口口口口 |----|
口口口口 |----|
口口口口 |----|
100
口口③口 |--①-|
②口口① |----|
②口口① |②---|
口口口口 |③---|
101
口口口口 |--①-|
口口口口 |--②-|
口①①口 |----|
口②②口 |----|
102
口口口口 |----|
口口口口 |----|
口口口口 |----|
口口口口
103
口口口口 |----|
②口口① |--①-|
②口口① |----|
口口口口 |②---|
104
口口①④ |①---|
口口口口 |--②-|
口③③口 |--③-|
口②②口 |--④-|
105
①口口口 |①---|
口口口口 |----|
口口口口 |----|
口口口口 |----|
106
口口口口 |①---|
口口口口 |----|
口口口口 |----|
口①①口
107
口口口口 |----|
口口口口 |----|
口口口口
口口口口
108
口口口口 |①---|
口口口口 |----|
口①①口 |----|
口口口口
109
口口口口 |----|
口口口口 |----|
口口口口
口口口口
110
口口口口 |①---|
口①①口 |----|
口口口口 |----|
口口口口
111
口口口口 |----|
口口口口 |----|
口口口口
口口口口
112
口①①口 |①---|
口口口口 |----|
口口口口 |----|
口口口口
113
口口口口 |----|
口口口口 |----|
口口口口
口口口口
114
①口口① |①---|
口口口口 |----|
口口口口 |----|
口口口口
115
口口口口 |----|
口口口口 |----|
口口口口
口口口口
116
口口口口 |----|
口口口口 |----|
口口口口 |----|
口口口口
117
口口口口 |----|
口口口口 |----|
口口口口
口口口口
118
口口口口 |----|
口口口口 |----|
口口口口 |----|
口口口口
119
口口口口 |----|
口口口口 |----|
口口口口
口口口口
120
口口口口 |----|
口口口口 |----|
口口口口 |----|
口口口口
121
口口口口 |----|
口口口口 |----|
口口口口
口口口口
122
口③②① |①---|
口口口口 |②---|
口口口口 |③---|
口口口口
123
①口口口 |①---|
口口③② |②---|
口口口口 |③---|
口口口口
124
口口口口 |①---|
口口口口 |②---|
①②③口 |③---|
口口口口
125
口口口③ |①---|
口口口口 |②---|
口口口① |③---|
②口口口
126
③②①口 |①---|
口口口口 |②---|
口口口口 |③---|
口口口口
127
口口口口 |①---|
口口口① |②---|
②③口口 |③---|
口口口口
128
口口口口 |①---|
口口口口 |②---|
口口①② |③---|
③口口口
129
口口口① |①---|
口口③② |②---|
口口口口 |③---|
口口口口
130
口口口口 |①---|
口口口口 |②---|
口口①口 |③---|
口口②③
131
①口口口 |①---|
②③口口 |②---|
口口口口 |③---|
口口口口
132
口口口③ |①---|
口口口口 |②---|
口①口口 |③---|
口②口口
133
口口口口 |①---|
口口口① |②---|
口口口② |③---|
口口口③
134
②口口口 |①---|
③口口口 |②---|
口口口口 |③---|
口口①口
135
口口口口 |①---|
口口口口 |②---|
①口口口 |③---|
②③口口
136
口口口口 |----|
口口口口 |----|
口口口口 |----|
口口口口
137
口口口口 |----|
口口口口 |----|
口口口口 |----|
口口口口
138
口口②口 |①---|
口口口口 |--②-|
口口口口 |----|
口口口①
139
口口口口 |①---|
口口口② |②---|
①口口口
口口口口
140
口口口口 |①---|
口口口口 |--②-|
口③口口 |--③-|
①口口②
141
口口口口 |①-②-|
口口口口 |③---|
口口①口
口②③口
142
口②口口 |①---|
口口口口 |--②-|
口口口口 |----|
①口口口
143
口口口口 |①---|
②口口口 |②---|
口口口①
口口口口
144
口口口① |①---|
口②③口 |--②-|
口④口口 |③-④-|
口口口口
145
口口口口 |①-②-|
口口口口 |③-④-|
口口①口
④②③口
146
口②口口 |①---|
口口口口 |--②-|
口口口口 |----|
口口口①
147
口口口口 |①---|
②口口口 |②---|
口口口①
口口口口
148
口②③① |①---|
口④口口 |--②-|
口口口口 |③-④-|
口口口口
149
口口口口 |①-②-|
口口①口 |③-④-|
口②③口
口④口口
150
口③③口 |①-②-|
②口口口 |----|
口口口口 |--③-|
口口①口
151
口口口口 |----|
口口口口 |①---|
口口口口 |----|
①口口①
152
口口口口 |①---|
口口口口 |--②-|
口②②口 |----|
口①①口
153
口口口口 |①---|
②口口② |--②-|
①口口① |----|
口口口口
154
口口②口 |①---|
口口口口 |--②-|
口口口口 |----|
口口口①
155
口口口口 |①---|
口口口② |②---|
①口口口
口口口口
156
口口口口 |①---|
口口口口 |--②-|
口③口口 |--③-|
①口口②
157
口口口口 |①-②-|
口口口口 |③---|
口口①口
口②③口
158
口②口口 |①---|
口口口口 |--②-|
口口口口 |----|
①口口口
159
口口口口 |①---|
②口口口 |②---|
口口口①
口口口口
160
口口口① |①---|
口②③口 |--②-|
口④口口 |③-④-|
口口口口
161
口口口口 |①-②-|
口口口口 |③-④-|
口口①口
④②③口
162
口②口口 |①---|
口口口口 |--②-|
口口口口 |----|
口口口①
163
口口口口 |①---|
②口口口 |②---|
口口口①
口口口口
164
口口口口 |①---|
口口口口 |--②-|
口②口口 |----|
口口①口
165
口口口口 |①---|
口口口口 |②---|
②口口①
②口口①
166
①②③口 |----|
口口口口 |①---|
口口口口 |②---|
口口口口 |③---|
167
口口口① |①---|
②③④口 |②---|
口口口口 |③---|
口口口口 |④---|
168
口口口口 |①---|
口口口① |②---|
②口口口 |----|
口口口口 |----|
169
口口口① |①---|
口口口② |②---|
口口口③ |③---|
口口口口
170
口口口口 |①---|
口口口口 |②---|
口口③口 |③---|
口口②①
171
①口口口 |①---|
②口口口 |②---|
③口口口 |③---|
口口口口
172
口口口③ |①---|
口口口口 |②---|
口口口口 |③---|
①②口口
173
口口①口 |①---|
口口②口 |②---|
口口③口 |③---|
口口口口
174
②③口口 |①---|
口口口口 |②---|
口口口口 |③---|
口口①口
175
口口口口 |①---|
口①口口 |②---|
口②口口 |③---|
口③口口
176
口口口① |①---|
口口口② |②---|
口口口③ |③---|
口口口口
177
口口口口 |①---|
口口口口 |②---|
口口①口 |③---|
口口③②
178
①口口口 |①---|
②口口口 |②---|
③口口口 |③---|
口口口口
179
口口口③ |①---|
口口口口 |②---|
口①口口 |③---|
②口口口
180
口口口口 |①---|
口口②① |②---|
口口口③ |③---|
口口口口
181
②口口口 |①---|
③口口口 |②---|
口口①口 |③---|
口口口口
182
口口口口 |①---|
口①口口 |②---|
②③口口 |③---|
口口口口

不確定度: 0

最終更新:2014年11月06日 17:34