きたさいたま2000
LindaAI-CUE(BNGI)「太鼓の達人」より

BASIC

Level: 5
BPM: 222
Notes: 347

1
口口口口 |----|
口口口口 |----|
口口口口 |----|
口口口口 |----|
2
口口口① |①---|
口口口口 |----|
口口口口 |----|
口口口口 |----|
3
①口口口 |①---|
口口口口 |----|
口口口口 |----|
口口口口 |----|
4
口口①口 |①---|
口口口口 |----|
口口口口 |----|
口口口口 |----|
5
口①口口 |①---|
口口口口 |----|
口口口口 |----|
口口口口 |----|
6
口口口① |①---|
口口口口 |----|
口口口口 |----|
口口口口 |----|
7
①口口口 |①---|
口口口口 |----|
口口口口 |----|
口口口口 |----|
8
口口①口 |①---|
口口口口 |----|
口口口口 |----|
口口口口 |----|
9
口①口口 |①---|
口口口口 |----|
口口口口 |----|
口口口口 |----|
10
口口口口 |①---|
口口①口 |----|
口口口口 |----|
口口口口 |----|
11
口口口口 |①---|
口①口口 |----|
口口口口 |----|
口口口口 |----|
12
口口口口 |①---|
口口口口 |----|
口口①口 |----|
口口口口 |----|
13
口口口口 |①---|
口口口口 |----|
口①口口 |----|
口口口口 |----|
14
口口口口 |①---|
口口①口 |----|
口口口口 |----|
口口口口 |----|
15
口口口口 |①---|
口①口口 |----|
口口口口 |----|
口口口口 |----|
16
口口口口 |①---|
口口口口 |----|
口②①口 |②---|
口口口口 |----|
17
口口口口 |①---|
口口口口 |----|
口②①口 |②---|
口口口口 |----|
18
②口口② |①---|
口①①口 |----|
口口口口 |②---|
口口口口 |----|
19
口口口口 |①---|
口③③口 |②---|
口②②口 |③---|
口①①口
20
口口口口 |①---|
②口口① |②---|
口④④口 |③---|
口③③口 |④---|
21
③②②③ |①---|
④①①④ |②---|
口口口口 |③---|
口口口口 |④---|
22
口口口口 |①---|
口口口口 |②---|
①口口① |③---|
②③③②
23
口①①口 |①---|
口②②口 |②---|
口③③口 |③---|
口口口口
24
④口口④ |①---|
③口口③ |②---|
②口口② |③---|
①口口① |④---|
25
口口口口 |①---|
口②①口 |----|
口口口口 |②---|
口口口口 |----|
26
④③②① |①---|
口口口口 |②---|
口口口口 |③---|
口口口口 |④---|
27
口口口口 |①---|
口②①口 |----|
口口口口 |②---|
口口口口 |----|
28
口口口口 |①---|
口口口口 |②---|
口③②① |③---|
口口口口
29
口口口口 |①---|
口②①口 |----|
口口口口 |②---|
口口口口 |----|
30
④③②① |①---|
口口口口 |②---|
口口口口 |③---|
口口口口 |④---|
31
口口口口 |①---|
口①②口 |----|
口口口口 |②---|
口口口口 |----|
32
口口口口 |①---|
口口口口 |②---|
①②③口 |③---|
口口口口
33
口口口口 |①---|
口①②口 |----|
口口口口 |②---|
口口口口 |----|
34
①②③④ |①---|
口口口口 |②---|
口口口口 |③---|
口口口口 |④---|
35
口口口口 |①---|
口①①口
口口口口
口口口口
36
口口口口 |①---|
口口口口 |----|
口①②口 |②---|
口口口口 |----|
37
口口口口 |①---|
①②③口 |②---|
口口口口 |③---|
口口口口
38
口口口口 |①---|
口口口口 |----|
口①②口 |②---|
口口口口 |----|
39
口口口口 |①---|
口口口口 |②---|
口口口口 |③---|
①②③④ |④---|
40
口口口口 |①---|
口口口口 |----|
口②①口 |②---|
口口口口 |----|
41
口口口口 |①---|
口③②① |②---|
口口口口 |③---|
口口口口
42
口口口口 |①---|
口口口口 |----|
口②①口 |②---|
口口口口 |----|
43
口口口口 |①---|
口口口口 |②---|
口口口口 |③---|
④③②① |④---|
44
口口口口 |①---|
口①①口
口口口口
口口口口
45
口口口① |①---|
口口口口 |----|
口口口口 |----|
口口口口 |----|
46
①口口口 |①---|
口口口口 |----|
口口口口 |----|
口口口口 |----|
47
口口口① |①---|
口口口口 |----|
口口口口 |----|
口口口口 |----|
48
①口口口 |①---|
口口口口 |----|
口口口口 |----|
口口口口 |----|
49
口口口① |①---|
口口口口 |----|
口口②口 |②---|
口口口口 |----|
50
①口口口 |①---|
口口口口 |----|
口②口口 |②---|
口口口口 |----|
51
口口口① |①---|
口口口口 |----|
口口②口 |②---|
口口口口 |----|
52
①口口口 |①---|
口口口口 |----|
口②口口 |②---|
口口口口
53
口口口① |----|
口②口口 |①---|
口口③口 |②---|
口口口口 |③---|
54
②①口口 |①---|
口口③口 |②---|
口口口口 |③---|
口口口口
55
口口②③ |①---|
口④口口 |②---|
口①口口 |③---|
口口口口 |④---|
56
③②口口 |①---|
口口④口 |②---|
口口①口 |③---|
口口口口 |④---|
57
口口②③ |①---|
口④口口 |②---|
口①口口 |③---|
口口口口 |④---|
58
③②口口 |①---|
口口口口 |②---|
口口①口 |③---|
口口口口
59
口口③④ |①---|
口口①口 |②---|
口②口口 |③---|
口口口口 |④---|
60
口③口口 |①---|
口①口口 |②---|
口口②口 |③---|
口口口口
61
口口口口 |①---|
⑤②①④ |②---|
口口口③ |③-④-|
口口口口 |--⑤-|
62
口口口口 |----|
口口口口
口口口口
口口口口
63
口口口口 |①---|
④①②⑤ |②---|
③口口口 |③-④-|
口口口口 |--⑤-|
64
口口口口 |----|
口口口口 |①---|
口①②口 |②---|
口口口口
65
口口口口 |①---|
⑤②①④ |②---|
口口口③ |③-④-|
口口口口 |--⑤-|
66
口口口口 |----|
口口口口
口口口口
口口口口
67
口口口口 |①---|
④①②⑤ |②---|
③口口口 |③-④-|
口口口口 |--⑤-|
68
口口口口 |----|
口口口口
口口口口
口口口口
69
口口③口 |①---|
口②口口 |②---|
口①①口 |③---|
口口口口
70
口口口口 |①---|
②⑤④① |②---|
口口③口 |③-④-|
口口口口 |--⑤-|
71
口口口口 |----|
口口口口
口口口口
口口口口
72
口口口口 |①---|
①④⑤② |②---|
口③口口 |③-④-|
口口口口 |--⑤-|
73
口口口口 |----|
口口口口 |----|
口口口① |①---|
口口口口
74
口口口口 |①---|
②⑤④① |②---|
口口③口 |③-④-|
口口口口 |--⑤-|
75
口口口口 |----|
口口口口
口口口口
口口口口
76
口口口口 |①---|
①④⑤② |②---|
口③口口 |③-④-|
口口口口 |--⑤-|
77
口口口口 |----|
口口口口
口口口口
口口口口
78
①口口① |①---|
②口口② |②---|
③口口③ |③---|
口口口口
79
口口口口 |①---|
口①①口 |----|
口②②口 |②---|
口口口口 |----|
80
口口口口 |①---|
②③③① |②---|
②口口① |③---|
口口口口
81
口口口口 |①---|
口口口口 |②---|
口④③口 |③---|
口②①口 |④---|
82
口口口口 |①---|
口②①口 |②---|
口④③口 |③---|
口口口口 |④---|
83
口口口口 |①---|
②口口① |②---|
口口口③ |③---|
口口口口
84
口口口口 |①---|
口③口口 |②---|
口口②口 |③---|
口①口口
85
口口口口 |①---|
口口①口 |②---|
口②口口 |③---|
口口③口 |----|
86
口口口口 |①---|
口②①口 |----|
口口口口 |②---|
口口口口 |----|
87
④③②① |①---|
口口口口 |②---|
口口口口 |③---|
口口口口 |④---|
88
口口口口 |①---|
口口①口 |----|
口口口口 |----|
口口口口 |----|
89
口口口口 |①---|
口口口口 |----|
口①口口 |----|
口口口口 |----|
90
口口口口 |----|
口口口口 |----|
口口口口
口口口口
91
口口口口 |①---|
口口口口 |----|
口口口口 |----|
口口①口 |----|
92
口口口口 |----|
口口口口 |----|
口口口口 |----|
口口口口
93
口口口口 |①---|
口口口口 |----|
口口口口 |----|
口①口口 |----|
94
口口口口 |----|
口口口口 |----|
口口口口 |----|
口口口口 |----|
95
口口口口 |----|
口口口口
口口口口
口口口口
96
口口口口 |①---|
口口口口 |----|
口口口口 |----|
口口①口 |----|
97
口口口口 |----|
口口口口 |----|
口口口口 |----|
口口口口 |----|
98
口口口口 |----|
口①①口 |①---|
口口口口 |----|
口口口口 |----|
99
口口口口 |----|
口口口口 |----|
口口口口 |----|
口口口口 |----|
100
口口口口 |①---|
口①①口 |----|
口口口口 |----|
口口口口 |----|
101
口口口口 |----|
口口口口 |----|
口口口口 |----|
口口口口 |----|
102
口口口口 |①---|
口①①口 |----|
口口口口 |----|
口口口口 |----|
103
口口口口 |----|
口①①口 |----|
口口口口 |①---|
口口口口 |----|
104
口口口口 |①---|
⑤口口④ |②---|
口②①③ |③-④-|
口口口口 |--⑤-|
105
口口口口 |----|
口口口口
口口口口
口口口口
106
口口口口 |①---|
④口口⑤ |②---|
③①②口 |③-④-|
口口口口 |--⑤-|
107
口口口口 |----|
口口①口 |----|
口口口口 |①---|
口口口口
108
口口口口 |①---|
口口口口 |②---|
口⑤④口 |③-④-|
②口③① |--⑤-|
109
口口口口 |----|
口口口口
口口口口
口口口口
110
口口口口 |①---|
口口口口 |②---|
口④⑤口 |③-④-|
①③口② |--⑤-|
111
口口口口 |----|
口口口口
口口口口
口口口口
112
①③③① |①---|
口②②口 |②---|
口口口口 |③---|
口口口口
113
口口口口 |①---|
⑤口口④ |②---|
口②①③ |③-④-|
口口口口 |--⑤-|
114
口口口口 |----|
口口口口
口口口口
口口口口
115
口口口口 |①---|
④口口⑤ |②---|
③①②口 |③-④-|
口口口口 |--⑤-|
116
口口口口 |----|
口①口口 |----|
口口口口 |①---|
口口口口
117
口口口口 |①---|
口口口口 |②---|
⑤口口④ |③-④-|
口②①③ |--⑤-|
118
口口口口 |----|
口口口口
口口口口
口口口口
119
口口口口 |①---|
口口口口 |②---|
④口口⑤ |③-④-|
③①②口 |--⑤-|
120
①口口① |----|
口口口口 |①---|
口③③口 |②---|
②口口② |③---|
121
口①①口 |①---|
③④②⑤ |②---|
口口口口 |③-④-|
口口口口 |--⑤-|
122
口口口口 |----|
口口①口 |①---|
③④②口 |②---|
口口口口 |③-④-|
123
口②②口 |--①-|
口口口口 |----|
口口口① |----|
口口口口 |②---|
124
口口口口 |①---|
⑤②④③ |②---|
口①口口 |③-④-|
口口口口 |--⑤-|
125
口口口口 |----|
口①口口 |①---|
口②④③ |②---|
口口口口 |③-④-|
126
②口口② |--①-|
③口口③ |----|
口口口口 |②---|
口①口口 |③---|
127
口口口口 |①---|
口口口口
①口口①
口口口口
128
口口口口 |①---|
口①①口 |----|
口②②口 |②---|
口口口口 |----|
129
口口口口 |①---|
②④④① |②---|
口口口③ |③---|
口口口口 |④---|

不確定度: 0

最終更新:2014年11月06日 17:09