High School Love
DJ YOSHITAKA feat.DWP

BASIC

Level: 3
BPM: 180
Notes: 253

1
口口口口 |----|
口口口口 |----|
口口口口 |----|
口口口口 |----|
2
口口口口 |①---|
口口口② |②---|
口口③口 |----|
口①口口 |--③-|
3
口口口口 |----|
口口口口 |----|
口口口口 |----|
口①口口 |①---|
4
②口口口 |①---|
口口口口 |----|
口口①口 |②---|
口口口口 |----|
5
口口口口 |①---|
口①口口 |----|
口②口口 |②---|
口口口口 |----|
6
口口口口 |①---|
②口口口 |②---|
口③口口 |----|
口口①口 |--③-|
7
口口口口 |----|
口口口口 |----|
口口口口 |----|
口口①口 |①---|
8
口口口② |①---|
口口口口 |----|
口①口口 |②---|
口口口口 |----|
9
口口口口 |①---|
口口①口 |----|
口口②口 |②---|
口口口口 |----|
10
①口口① |①---|
口口口口 |----|
口口口口 |----|
口口口口 |----|
11
口口口口 |----|
口①②口 |①---|
口③口口 |②---|
口口口口 |③---|
12
口口口口 |①---|
口口口口 |----|
口口①口 |----|
口口口口 |----|
13
①②③口 |----|
口口口口 |①---|
口口口口 |②---|
口口口口 |③---|
14
口口口① |①---|
口口口口 |----|
口口口口 |----|
口口口口 |----|
15
口口口口 |----|
口①口口 |①---|
口口口口 |----|
口口口口 |----|
16
口①①口 |①---|
口②②口 |----|
口口口口 |②---|
口口口口 |----|
17
口口口口 |①---|
口口口口 |----|
口①①口 |②---|
口②②口 |----|
18
口口口口 |①---|
口②口口 |----|
①口口口 |②---|
口口口口 |----|
19
口口口口 |①---|
口口①口 |----|
口口口② |②---|
口口口口 |----|
20
口口口口 |①---|
口口口口 |----|
口①口口 |----|
口口口口 |----|
21
口口口口 |----|
口口口口 |----|
口口口口 |----|
口口口口 |----|
22
口口口口 |①---|
口口口口 |----|
口口口口 |----|
口口①① |----|
23
口口口口 |①---|
①①口口 |----|
口口口口 |----|
口口口口 |----|
24
口口口口 |①---|
口口①① |----|
口口口口 |----|
口口口口 |----|
25
口口口口 |①---|
口口口口 |----|
口口②口 |②---|
①①口口 |----|
26
口口口② |①---|
口①③口 |----|
口口口口 |②---|
口口口口 |③---|
27
口口口口 |①---|
口口口口 |----|
口口③① |②---|
口②口口 |③---|
28
口口口口 |①---|
口①口口 |----|
口③口口 |②---|
口口②口 |③---|
29
口口口口 |①---|
口口①口 |----|
③口口口 |②---|
口②口口 |③---|
30
口口口口 |①---|
口①口口 |----|
口口口口 |----|
口口口口 |----|
31
口口口口 |----|
口口口口 |----|
口口口口 |----|
口口口口 |----|
32
①口口② |①---|
口口口口 |----|
口口口口 |②---|
口口口口 |----|
33
口口口口 |①---|
①口口② |----|
口口口口 |②---|
口口口口 |----|
34
口口口口 |①---|
口口口口 |②---|
口①②口 |③---|
口③④口 |④---|
35
口口口口 |①---|
口②②口 |----|
口口口口 |②---|
①口口口 |----|
36
口口口口 |----|
口口口口 |①---|
口①口口 |②---|
口③②口 |③---|
37
口口口口 |①---|
④③②① |②---|
口口口口 |③---|
口口口口 |④---|
38
口口口口 |①---|
口②②口 |----|
口①①口 |②---|
口口口口 |----|
39
①口口① |①---|
口②③口 |----|
口口口口 |②---|
口口口口 |③---|
40
口口口口 |①---|
口口口口 |②---|
④③②① |③---|
口口口口 |④---|
41
口口口口 |①---|
口口口口 |②---|
口口口口 |③---|
①②③④ |④---|
42
口口口口 |①---|
③口口④ |②---|
①口口② |③---|
口口口口 |④---|
43
①口口口 |①---|
口②②口 |----|
口口口口 |②---|
口口口口 |----|
44
口口口口 |----|
口口口口 |①---|
口口①口 |②---|
口②③口 |③---|
45
口口口口 |①---|
①②③④ |②---|
口口口口 |③---|
口口口口 |④---|
46
口口口口 |①---|
口②②口 |----|
口①①口 |②---|
口口口口 |----|
47
①口口① |①---|
口口口口 |----|
口②③口 |②---|
口口口口 |③---|
48
口口口口 |①---|
口①①口 |----|
口口口口 |②---|
口②②口 |----|
49
②口口② |①---|
口口口口 |----|
①口口① |②---|
口口口口 |----|
50
口口口口 |①---|
①口口① |----|
口口口口 |②---|
②口口② |----|
51
口②②口 |①---|
口口口口 |----|
口①①口 |②---|
口口口口 |----|
52
口口口口 |①---|
口②②口 |----|
口口口口 |②---|
口①①口 |----|
53
②口口② |①---|
口口口口 |----|
①口口① |②---|
口口口口 |----|
54
口①①口 |①---|
口②②口 |----|
口口口口 |②---|
口口口口 |----|
55
口口口口 |①---|
口口口口 |----|
口①①口 |②---|
口②②口 |----|
56
④口口口 |①---|
③口口口 |②---|
②口口口 |③---|
①口口口 |④---|
57
口①②③ |①---|
口口口④ |②---|
口口口口 |③---|
口口口口 |④---|
58
口口口口 |①---|
口口口口 |②---|
口口口① |③---|
口④③② |④---|
59
口口口口 |①---|
口②③口 |②---|
口①④口 |③---|
口口口口 |④---|
60
口口口口 |①---|
口口口口 |②---|
③口口④ |③---|
口①②口 |④---|
61
口③④口 |①---|
①口口② |②---|
口口口口 |③---|
口口口口 |④---|
62
①口口② |①---|
口③④口 |②---|
口口口口 |③---|
口口口口 |④---|
63
口口口口 |①---|
口口口口 |②---|
口①②口 |③---|
③口口④ |④---|
64
口口口口 |①---|
口口口口 |②---|
①②③④ |③---|
口口口口 |④---|
65
①口口① |①---|
口②②口 |----|
口口口口 |②---|
口口口口 |----|
66
口口口口 |----|
口口口口 |①---|
口①口口 |----|
口口口口 |----|
67
口口口口 |①---|
口口①口 |----|
口口口口 |----|
口口口口 |----|
68
口口口口 |①---|
口①口口 |----|
口口口口 |----|
口口口口 |----|
69
口口口口 |①---|
口口口口 |----|
口口①口 |----|
口口口口 |----|
70
①口口① |①---|
口口口口 |----|
口口口口 |----|
口口口口 |----|
71
①口口① |①---|
口口口口 |----|
口口口口 |----|
口口口口 |----|
72
①口口① |①---|
②口口② |----|
口口口口 |②---|
口口口口 |----|
73
口口口口 |①---|
口②②口 |----|
①口口① |②---|
口口口口 |----|
74
口口口口 |----|
口口口口 |①---|
口口①口 |②---|
口②③口 |③---|
75
口口口口 |①---|
①②③④ |②---|
口口口口 |③---|
口口口口 |④---|
76
口口口口 |①---|
口②②口 |----|
口①①口 |②---|
口口口口 |----|
77
①口口① |①---|
口口口口 |----|
口②③口 |②---|
口口口口 |③---|
78
口口口口 |①---|
口①①口 |----|
口口口口 |②---|
口②②口 |----|
79
②口口② |①---|
口口口口 |----|
①口口① |②---|
口口口口 |----|
80
口口口口 |①---|
①口口① |----|
口口口口 |②---|
②口口② |----|
81
口②②口 |①---|
口口口口 |----|
口①①口 |②---|
口口口口 |----|
82
口口口口 |①---|
口②②口 |----|
口口口口 |②---|
口①①口 |----|
83
②口口② |①---|
口口口口 |----|
①口口① |②---|
口口口口 |----|
84
口①①口 |①---|
口②②口 |----|
口口口口 |②---|
口口口口 |----|
85
口口口口 |①---|
口口口口 |----|
口①①口 |②---|
口②②口 |----|

不確定度: 0

最終更新:2014年11月06日 13:16