High School Love
DJ YOSHITAKA feat.DWP

ADVANCED

Level: 7
BPM: 180
Notes: 462

1
口口口口 |----|
口口口口 |----|
口口口口 |----|
口口口口 |----|
2
口④口① |①---|
口③口口 |②---|
口口口口 |--③-|
②口口口 |--④-|
3
口口口口 |----|
口口②① |----|
口口口口 |----|
口口口口 |①-②-|
4
⑤口口口 |①---|
口①口口 |②-③-|
口③②口 |--④-|
口口④口 |--⑤-|
5
口口口口 |--①-|
口口口① |--②-|
口口口口 |----|
②口③口 |③---|
6
口口③口 |----|
口口②口 |①---|
口口口口 |--②-|
口口口① |--③-|
7
口口口口 |----|
①②口口 |----|
口口口口 |----|
口口口口 |①-②-|
8
口口口⑤ |①---|
口口①口 |②-③-|
口②③口 |--④-|
口④口口 |--⑤-|
9
口口口口 |--①-|
①口口口 |--②-|
口③②口 |③---|
口④④口 |④---|
10
口①①口 |①---|
②口口② |--②-|
③口口③ |--③-|
④口口④ |--④-|
11
口口口③ |----|
口②①口 |①-②-|
口口口口 |--③-|
口④口口 |--④-|
12
口口口口 |----|
①口口① |--①-|
②口口② |--②-|
③口口③ |--③-|
13
①口口① |----|
口③③口 |①---|
口口口口 |②---|
口②②口 |③---|
14
口口口口 |①---|
②口口② |--②-|
口口口口
①口口①

口口口口
口口口口
③口口③ |--③-|
④口口④ |--④-|
15
口口口③ |----|
口②①口 |①-②-|
口口口口 |--③-|
④口口口 |--④-|
16
口口口口 |①---|
口②②口 |----|
口①①口 |②---|
口口口口 |----|
17
口③口口 |①---|
②口④② |②---|
口①①口 |③---|
口口口口 |④---|
18
口口②口 |①---|
口③口口 |----|
口口④口 |②-③-|
①⑤口口 |④-⑤-|
19
②④口口 |----|
口口③口 |①---|
①口口口 |②---|
口口口口 |③-④-|
20
口口口口 |----|
口口口口 |----|
口口口口 |----|
口口口口 |----|
21
口口口① |----|
口口口口 |----|
口口口口 |----|
口口口口 |①---|
22
口口口口 |①---|
口②口口 |----|
口口③口 |--②-|
口④①口 |③-④-|
23
口口口口 |----|
口口口口 |----|
口②②② |①---|
口口①口 |②---|
24
②口口口 |①---|
口①③① |----|
④口口口 |--②-|
口口口口 |③-④-|
25
口②口① |----|
口④口③ |----|
口口口口 |①-②-|
口口口口 |③-④-|
26
口口口② |----|
⑤口③口 |--①-|
口④口口 |②-③-|
口①口口 |④-⑤-|
27
口口口口 |----|
口口口口 |----|
③口④口 |①-②-|
①口②口 |③-④-|
28
④口①口 |----|
口口口口 |--①-|
口③口口 |②-③-|
②口口口 |--④-|
29
口④口口 |----|
口口口③ |----|
口②口口 |①-②-|
口口口① |③-④-|
30
口口口口 |----|
口口口口 |----|
口口口口 |----|
口口口口 |----|
31
口口口口 |----|
口口口口 |----|
口口口口 |----|
口口口口 |----|
32
①口口② |①---|
③口口④ |②---|
口口口口 |③---|
口口口口 |④---|
33
口口口口 |①---|
口口口口 |②---|
①口口② |③---|
③口口④ |④---|
34
口①②口 |①-②-|
口③④口 |③-④-|
口⑤⑥口 |⑤-⑥-|
口⑦⑧口 |⑦-⑧-|
35
①口口口 |①-②-|
口⑤④② |③-④-|
口⑦⑥口 |⑤-⑥-|
③口⑧口 |⑦-⑧-|
36
①口口① |----|
口②⑤⑤ |①---|
口口③口 |②-③-|
口④口口 |④-⑤-|
37
口口口口 |--①-|
口④④口 |--②-|
③口口② |③---|
口口①① |④---|
38
口③③口 |①-②-|
④⑤口口 |--③-|
口口②口 |----|
①口口口 |--④⑤|
39
口口口② |①---|
口口①④ |--②-|
口③口口 |③-④-|
口⑤⑥口 |⑤-⑥-|
40
①①口口 |①---|
口口③口 |②-③-|
口⑤⑤口 |--④-|
②口口④ |--⑤-|
41
①①口口 |----|
②②口口 |①---|
③③口口 |②---|
口口口口 |③---|
42
②④④口 |①---|
口口①① |②-③-|
口口③口 |--④-|
⑤口口⑤ |--⑤-|
43
口口口口 |----|
口②①口 |--①-|
口④③口 |②-③-|
口口⑤口 |④-⑤-|
44
①口口① |----|
口②⑤⑤ |①---|
口口③口 |②-③-|
口④口口 |④-⑤-|
45
口口口口 |--①-|
口④④口 |--②-|
③口口② |③---|
口口①① |④---|
46
口③③口 |①-②-|
④⑤口口 |--③-|
口口②口 |----|
①口口口 |--④⑤|
47
口口口② |①---|
口口①口 |--②-|
口③④口 |③-④-|
口⑤⑥口 |⑤-⑥-|
48
口①口口 |①---|
③口②③ |②-③-|
④口口④ |--④-|
⑤口口⑤ |--⑤-|
49
口口口口 |----|
②②①① |①---|
口③③口 |②---|
口口口口 |③---|
50
口①①口 |①---|
③口②③ |②-③-|
④口口④ |--④-|
⑤口口⑤ |--⑤-|
51
口口口口 |----|
口口①口 |①-②-|
口②口④ |③---|
口口③口 |④---|
52
口①①口 |①---|
③②口③ |②-③-|
④口口④ |--④-|
⑤口口⑤ |--⑤-|
53
口口①口 |----|
口②口口 |①---|
口口③口 |②---|
口口口口 |③---|
54
口口口口 |①---|
③口口② |--②-|
口口口口 |③---|
口①口口 |----|
55
口口口口 |①---|
口①①口 |②---|
口②②口 |③---|
④③③口 |--④-|
56
④③②① |①-②-|
口⑧⑦口 |③-④-|
口⑥口口 |⑤-⑥-|
口口口⑤ |⑦-⑧-|
57
口⑦口口 |--①-|
口口⑥口 |②-③-|
口⑤口口 |④-⑤-|
④①②③ |⑥-⑦-|
58
口口③② |--①-|
④⑤口口 |②-③-|
①口⑦⑥ |④-⑤-|
口口口口 |⑥-⑦-|
59
口①⑤口 |--①-|
口⑥②口 |②-③-|
⑦③口口 |④-⑤-|
口口④口 |⑥-⑦-|
60
口⑥⑤口 |----|
④口口③ |①-②-|
口②①口 |③-④-|
口口口口 |⑤-⑥-|
61
②口口① |①-②-|
口④③口 |③-④-|
⑥口口⑤ |⑤-⑥-|
口⑧⑦口 |⑦-⑧-|
62
口⑥口口 |①---|
口③②口 |②-③-|
口口⑤口 |--④-|
④口口① |⑤-⑥-|
63
①口口① |--①-|
③口②④ |-②--|
⑤②⑤③ |③--④|
④口口口 |-⑤--|
64
口①②口 |①-②-|
口③④口 |③-④-|
口⑤⑥口 |⑤-⑥-|
口⑦⑧口 |⑦-⑧-|
65
①口口口 |①-②-|
口⑤④② |③-④-|
口⑦⑥口 |⑤-⑥-|
③口⑧口 |⑦-⑧-|
66
①口口① |----|
口②口⑤ |①---|
口口③口 |②-③-|
口④口口 |④-⑤-|
67
口口口口 |--①-|
口口④口 |--②-|
③口口② |③---|
口口口① |④---|
68
口③口口 |①-②-|
口口口口 |--③-|
口口②口 |----|
①口口口 |----|
69
口口口② |①---|
口①①④ |--②-|
口③口口 |③-④-|
口⑤⑥口 |⑤-⑥-|
70
①①口口 |①---|
口③②口 |②---|
口口④口 |③---|
口口口口 |④---|
71
口口①① |①---|
②口口③ |②---|
④口口口 |③---|
口口口口 |④---|
72
①①③③ |①---|
口②口口 |②---|
口④口口 |③---|
口口口口 |④---|
73
口口口口 |①---|
口口③口 |②-③-|
口口口口
②②①①

口口口口
口④口口
口⑥⑤口 |④-⑤-|
口口⑦口 |⑥-⑦-|
74
①口口① |----|
口②⑤⑤ |①---|
口口③口 |②-③-|
口④口口 |④-⑤-|
75
口口口口 |--①-|
口④④口 |--②-|
③口口② |③---|
口口①① |④---|
76
口③③口 |①-②-|
④⑤口口 |--③-|
口口②口 |----|
①口口口 |--④⑤|
77
口口口② |①---|
口口①口 |--②-|
口③④口 |③-④-|
口⑤⑥口 |⑤-⑥-|
78
口①口口 |①---|
③口②③ |②-③-|
④口口④ |--④-|
⑤口口⑤ |--⑤-|
79
口口口口 |----|
②②①① |①---|
口③③口 |②---|
口口口口 |③---|
80
口①①口 |①---|
③口②③ |②-③-|
④口口④ |--④-|
⑤口口⑤ |--⑤-|
81
口口口口 |----|
口口①口 |①-②-|
口②口④ |③---|
口口③口 |④---|
82
口①①口 |①---|
③②口③ |②-③-|
④口口④ |--④-|
⑤口口⑤ |--⑤-|
83
口口①口 |----|
口②口口 |①---|
口口③口 |②---|
口口口口 |③---|
84
口口口口 |①---|
③口口② |--②-|
口口口口 |③---|
口①口口 |----|
85
口口口③ |①---|
④①①口 |②---|
口②②⑤ |③-④-|
口口口口 |⑤---|

不確定度: 0

最終更新:2014年11月05日 20:22