High School Love
DJ YOSHITAKA feat.DWP

EXTREME

Level: 9
BPM: 180
Notes: 786

1
口口口口 |----|
口口口口 |----|
口口口口 |----|
口口口口 |----|
2
口口④④ |①---|
口口⑤⑤ |②---|
③①①口 |③-④-|
口②②口 |--⑤-|
3
口口口口 |--①-|
⑤口口口 |②---|
口③③口 |③---|
②④④① |④-⑤-|
4
口③②① |①---|
口口口口 |②-③-|
④口口④ |--④-|
口⑤⑤口 |--⑤-|
5
口口口口 |--①-|
口口②口 |--②-|
③①①③ |③---|
④口口④ |④---|
6
口①④④ |①---|
①口⑤⑤ |②---|
③口口口 |③-④-|
口口②口 |--⑤-|
7
口口口口 |--①-|
⑤口口口 |②---|
口③③口 |③---|
②④④① |④-⑤-|
8
口③②① |①---|
口口口口 |②-③-|
④口口④ |--④-|
口⑤⑤口 |--⑤-|
9
②口口② |--①-|
口③③口 |--②-|
口①①口 |----|
口口口口 |③---|
10
口口②口 |①---|
②口口口 |--②-|
口①①②
①②口①

④③口口
口口④③
③④口口 |--③-|
口口③④ |--④-|
11
口口口④ |----|
①口④口 |①-②-|
口口③口 |--③-|
口②口口 |--④-|
12
口②口口 |①---|
口口口② |--②-|
②口口口
①口②①

口口③④
③④口口
口口④③ |--③-|
④③口口 |--④-|
13
①③口③ |----|
口口口① |①---|
②口口口 |②---|
口口口② |③---|
14
口口②口 |①---|
②口口口 |--②-|
口①①②
口②口口

④③口口
口口④③
③④口口 |--③-|
口口③④ |--④-|
15
口④①口 |----|
口口口口 |①-②-|
口口口③ |--③-|
口②③口 |--④-|
16
③口口③ |①---|
口①①口 |②---|
口口口口 |③---|
口②④口 |④---|
17
⑨①①⑩ |①---|
⑦口口⑧ |②---|
⑤口②⑥ |③④⑤⑥|
③口口④ |⑦⑧⑨⑩|
18
口①①⑥ |①---|
口口⑤口 |②---|
⑤③口④ |③-④-|
口②③口 |⑤-⑥-|
19
口③口口 |①---|
口⑤④口 |②---|
④③②口 |③---|
①②口口 |④-⑤-|
20
口口口口 |①---|
口口口口 |②---|
④③口口 |③---|
①②口口 |④---|
21
口口④口 |①---|
口口口口 |②---|
④③口④ |③---|
①②口口 |④---|
22
口口口① |①---|
口⑥⑤④ |②---|
⑤③①口 |③-④-|
①②口口 |⑤-⑥-|
23
口口口口 |①---|
口口口④ |②---|
④③口口 |③---|
①②③口 |④---|
24
口口①口 |①---|
口④口⑥ |②---|
⑤③⑤口 |③-④-|
①②口口 |⑤-⑥-|
25
⑨⑨⑩⑩ |①②③④|
③⑪④⑫ |⑤⑥⑦⑧|
⑪⑦⑫⑧ |⑨-⑩-|
①⑤②⑥ |⑪-⑫-|
26
④④⑥⑥ |--①-|
②⑤⑤口 |②-③-|
口口口③ |④-⑤-|
⑥⑥①口 |--⑥-|
27
⑦⑦口口 |--①-|
③口⑥口 |②-③-|
⑤②①④ |④-⑤-|
口口⑦⑦ |⑥-⑦-|
28
口口⑥⑥ |--①-|
③口口② |②-③-|
⑤①⑤④ |④-⑤-|
⑥⑥口口 |--⑥-|
29
⑦⑦口⑥ |--①-|
⑤①②④ |②-③-|
⑤③口④ |④-⑤-|
口口⑦⑦ |⑥-⑦-|
30
口口⑥⑦ |--①-|
口口④⑤ |②-③-|
口口②③ |④-⑤-|
①口口口 |⑥-⑦-|
31
⑦⑧口口 |①-②-|
⑤⑥口口 |③-④-|
③④口口 |⑤-⑥-|
①②口口 |⑦-⑧-|
32
口口⑧口 |①-②-|
⑦口④⑦ |③-④-|
③⑤⑥③ |⑤-⑥-|
口①②口 |⑦-⑧-|
33
③口⑧③ |①-②-|
口口口口 |③-④-|
⑦⑤⑥⑦ |⑤-⑥-|
口①④② |⑦-⑧-|
34
③口口③ |①-②-|
⑪⑦⑧⑫ |③-④-|
⑨⑤⑥⑩ |⑤⑥⑦⑧|
①口④② |⑨⑩⑪⑫|
35
③③②② |①-②-|
口⑥⑤⑧ |③-④-|
口④⑦口 |⑤-⑥-|
①①口口 |⑦-⑧-|
36
口②①口 |----|
①⑤③⑤ |①---|
口④口① |②-③-|
口①口口 |④-⑤-|
37
②口口③ |--①-|
口④④口 |--②-|
②口口③ |③---|
①口①口 |④---|
38
口②③口 |①-②-|
②⑥口③ |--③-|
④口⑦⑤ |④---|
口口①① |⑤-⑥⑦|
39
⑧④③② |①-②-|
⑤口⑤口 |③-④-|
口⑥口口 |⑤-⑥-|
⑦①⑦口 |⑦-⑧-|
40
⑦口口⑦ |①---|
④①⑤① |②-③-|
②⑥③口 |④-⑤-|
口②⑤③ |⑥-⑦-|
41
口②②口 |--①-|
③①口③ |②---|
口口口口 |③---|
口④④口 |④---|
42
④口口⑤ |①---|
口④⑤③ |②-③-|
②①①口 |--④-|
口口口口 |--⑤-|
43
口口③口 |--①-|
④⑥⑦口 |②-③-|
口⑧⑨口 |④-⑤-|
①②口⑤ |⑥⑦⑧⑨|
44
口①②口 |----|
⑤③⑤① |①---|
①口④口 |②-③-|
口口①口 |④-⑤-|
45
③口口② |--①-|
口④④口 |--②-|
③口口② |③---|
口①口① |④---|
46
口③②口 |①-②-|
③口⑥② |--③-|
⑤⑦口④ |④---|
①①口口 |⑤-⑥⑦|
47
②③④⑧ |①-②-|
口⑤口⑤ |③-④-|
口口⑥口 |⑤-⑥-|
口⑦①⑦ |⑦-⑧-|
48
①③④⑤ |①---|
④⑤①③ |②-③-|
③②⑤④ |--④-|
⑤④③口 |--⑤-|
49
口①口口 |----|
口口①② |①---|
②③③口 |②---|
口口口口 |③---|
50
①口③① |①---|
③①口口 |②-③-|
口口口③
②③口口

⑤④口口
口口⑤④
④⑤口口 |--④-|
口口④⑤ |--⑤-|
51
口口口口 |----|
④①⑤口 |①-②-|
口口②口 |③-④-|
口③口口 |⑤---|
52
②③口口 |①---|
口口口③ |②-③-|
③①口口
①口③①

口口④⑤
④⑤口口
口口⑤④ |--④-|
⑤④口口 |--⑤-|
53
口②口口 |----|
口口②口 |①---|
③①口③ |②---|
口口①口 |③---|
54
④口口④ |①---|
①口③① |②-③-|
口口口口 |④---|
口②⑤口 |⑤---|
55
口①①口 |①---|
⑦口口⑦ |②---|
⑤口②⑥ |③④⑤⑥|
③⑦⑦④ |--⑦-|
56
①②③口 |①②③-|
口④⑤口 |④⑤⑥⑦|
口⑥⑦口
口口口口

口⑪口⑪
口口口口
口口口⑩ |⑧-⑨-|
⑧口口⑨ |⑩-⑪-|
57
口⑨①⑨ |--①-|
⑧②③① |②③④⑤|
⑦④⑤口 |⑥-⑦-|
口⑥口口 |⑧-⑨-|
58
②⑧口⑧ |--①-|
⑥③口④ |②③-④|
口口口口 |-⑤-⑥|
⑦⑤①① |⑦-⑧-|
59
⑨口⑧口 |--①②|
⑨②①⑧ |③④⑤⑥|
⑥⑤④③ |⑦-⑧-|
⑩⑩⑦⑦ |⑨-⑩-|
60
⑧①口口 |----|
口⑤⑥⑦ |①-②③|
②③④口 |④-⑤⑥|
口口口口 |⑦-⑧-|
61
⑫⑪⑩⑨ |①②③④|
⑯⑮⑭⑬ |⑤⑥⑦⑧|
⑧⑦⑥⑤ |⑨⑩⑪⑫|
④③②① |⑬⑭⑮⑯|
62
口④④口 |①---|
⑤⑥⑦⑧ |②-③-|
口③口③ |--④-|
②①②① |⑤⑥⑦⑧|
63
①口口③ |①-②-|
口口口口 |-③--|
①口口③
口②口②

口④④口
口口口⑦
⑥⑤⑤口 |④--⑤|
口口⑥口 |-⑥-⑦|
64
③口口⑥ |①②③④|
⑦⑤⑧口 |⑤⑥⑦⑧|
口口口④
口①口②

口口⑩口
口口口⑭
⑪⑨⑯口 |⑨⑩⑪⑫|
⑬⑮⑫口 |⑬⑭⑮⑯|
65
①①④⑥ |①-②-|
⑤③③口 |③-④-|
口⑦口② |⑤-⑥-|
口口⑧② |⑦-⑧-|
66
口②①口 |----|
口口③⑤ |①---|
口④口口 |②-③-|
口口口口 |④-⑤-|
67
②口口③ |--①-|
口④口口 |--②-|
口口口口 |③---|
口口①口 |④---|
68
口口③口 |①-②-|
②④口口 |--③-|
口口⑤口 |----|
口口口① |--④⑤|
69
⑥②口口 |①---|
口口③口 |--②-|
口④口口 |③-④-|
口①⑤口 |⑤-⑥-|
70
口口口口 |①---|
口①⑤① |②-③-|
口口②口 |--④-|
③口口④ |--⑤-|
71
①口②① |①---|
口③口口 |②---|
口口口口 |③---|
④口口口 |④---|
72
⑤口口口 |①---|
口④④⑥ |②-③-|
②①①③ |④-⑤-|
口口口口 |--⑥-|
73
⑤口口⑥ |①-②-|
口⑦⑧口 |③-④-|
③⑨⑩④ |⑤-⑥-|
口①②口 |⑦⑧⑨⑩|
74
口①②口 |----|
⑤③⑤① |①---|
①口④口 |②-③-|
口口①口 |④-⑤-|
75
③口口② |--①-|
口④④口 |--②-|
③口口② |③---|
口①口① |④---|
76
口③②口 |①-②-|
③口⑥② |--③-|
⑤⑦口④ |④---|
①①口口 |⑤-⑥⑦|
77
②③④⑧ |①-②-|
口⑤口⑤ |③-④-|
口口⑥口 |⑤-⑥-|
口⑦①⑦ |⑦-⑧-|
78
①③④⑤ |①---|
④⑤①③ |②-③-|
③②⑤④ |--④-|
⑤④③口 |--⑤-|
79
口①口口 |----|
口口①② |①---|
②③③口 |②---|
口口口口 |③---|
80
①口③① |①---|
③①口口 |②-③-|
口口口③
②③口口

⑤④口口
口口⑤④
④⑤口口 |--④-|
口口④⑤ |--⑤-|
81
口口口口 |----|
④①⑤口 |①-②-|
口口②口 |③-④-|
口③口口 |⑤---|
82
②③口口 |①---|
口口口③ |②-③-|
③①口口
①口③①

口口④⑤
④⑤口口
口口⑤④ |--④-|
⑤④口口 |--⑤-|
83
口②口口 |----|
口口②口 |①---|
③①口③ |②---|
口口①口 |③---|
84
④口口④ |①---|
①口③① |②-③-|
口口口口 |④---|
口②⑤口 |⑤---|
85
⑨①①⑩ |①---|
⑦口口⑧ |②---|
⑤口②⑥ |③④⑤⑥|
③口口④ |⑦⑧⑨⑩|

不確定度: 0

最終更新:2014年11月05日 20:21