きたさいたま2000
LindaAI-CUE(BNGI)「太鼓の達人」より

ADVANCED

Level: 9
BPM: 222
Notes: 765

1
口口口口 |----|
口口口口 |----|
口口口口 |----|
口口口口 |----|
2
口口口① |①---|
口口口口 |----|
口口口口 |----|
口口口口 |----|
3
①口口口 |①---|
口口口口 |----|
口口②口 |②---|
口口口口 |----|
4
①口口口 |①---|
口口口口 |----|
口口口口 |----|
口口口口 |----|
5
口口口① |①---|
口口口口 |----|
口②口口 |②---|
口口口口 |----|
6
口口①口 |①---|
口口口口 |----|
口口口口 |----|
口口口口 |----|
7
口①口口 |①---|
口口口口 |----|
口口②口 |②---|
口口口口 |----|
8
口①口口 |①---|
口口口口 |----|
口口口口 |----|
口口口口 |----|
9
口口①口 |①---|
口口口口 |----|
口②口口 |②---|
口口口口 |----|
10
口口口口 |①---|
口口①口 |----|
口口口口 |----|
口口口口 |----|
11
口口口口 |①---|
口①口口 |----|
口口②口 |②---|
口口口口 |----|
12
口口口口 |①---|
①口口口 |----|
口口口口 |----|
口口口口 |----|
13
口口口口 |①---|
口口口① |----|
口②口口 |②---|
口口口口 |----|
14
口口口口 |①---|
口口口口 |----|
口口口口 |②---|
口口②① |----|
15
口口口口 |①---|
口口口口 |----|
口口口口 |②---|
②①口口 |----|
16
口口口口 |①---|
口②①口 |②---|
口④③口 |③---|
口口口口 |④---|
17
②口口① |①-②-|
④口口③ |③-④-|
⑥口口⑤ |⑤-⑥-|
⑧口口⑦ |⑦-⑧-|
18
口口②② |①---|
口①①③ |----|
口口口口 |②-③-|
④④口口 |--④-|
19
④⑤口口 |①-②-|
④口口口 |③-④-|
①口口② |⑤---|
口口③③
20
口口口⑥ |①---|
口②②口 |②---|
④①①⑤ |③-④-|
③③口口 |⑤-⑥-|
21
①①③口 |①-②-|
②口口⑧ |③-④-|
口⑥④口 |⑤-⑥-|
⑤⑤口⑦ |⑦-⑧-|
22
①①口口 |①-②-|
⑤②口口 |③-④-|
⑤口④③ |⑤---|
口口口口
23
口口②① |①-②-|
口口④③ |③-④-|
口口口⑤ |⑤---|
口口口口
24
⑦口口口 |①-②-|
⑤⑥口口 |③-④-|
③④口口 |⑤-⑥-|
①②口口 |⑦---|
25
⑧口口⑦ |①-②-|
⑥口口⑤ |③-④-|
④口口③ |⑤-⑥-|
②口口① |⑦-⑧-|
26
⑯⑧⑦⑮ |①②③④|
⑭⑥⑤⑬ |⑤⑥⑦⑧|
⑫④③⑪ |⑨⑩⑪⑫|
⑩②①⑨ |⑬⑭⑮⑯|
27
口口口口 |①-②-|
口口口口 |③-④-|
⑧④②⑥ |⑤-⑥-|
⑦③①⑤ |⑦-⑧-|
28
口口⑤口 |①-②-|
口口口⑤ |③-④-|
口④②口 |⑤---|
口③①口
29
口口口口 |①-②-|
口口口口 |③-④-|
②⑥⑧④ |⑤-⑥-|
①⑤⑦③ |⑦-⑧-|
30
⑤口⑧⑥ |①-②-|
口⑦口口 |③-④-|
②口口④ |⑤-⑥-|
①口口③ |⑦-⑧-|
31
口口口口 |①-②-|
口口口口 |③-④-|
②⑥⑧④ |⑤-⑥-|
①⑤⑦③ |⑦-⑧-|
32
口⑤口口 |①-②-|
⑤口口口 |③-④-|
②口口④ |⑤---|
①口口③
33
口口口口 |①-②-|
口口口口 |③-④-|
④⑧②⑥ |⑤-⑥-|
③⑦①⑤ |⑦-⑧-|
34
口口口口 |①-②-|
口口口口 |③-④-|
④⑧②⑥ |⑤-⑥-|
③⑦①⑤ |⑦-⑧-|
35
口③②① |①②③-|
口口口口
口口口口
口口口口
36
口口口口 |①-②-|
口口口口 |③-④-|
④⑧②⑥ |⑤-⑥-|
③⑦①⑤ |⑦-⑧-|
37
口口⑤口 |①-②-|
口口口⑤ |③-④-|
④口②口 |⑤---|
③口①口
38
①②口口 |①-②-|
③④口口 |③-④-|
口口⑥⑤ |⑤-⑥-|
口口⑧⑦ |⑦-⑧-|
39
⑧口②① |①-②-|
口⑦④③ |③-④-|
口⑤⑥口 |⑤-⑥-|
口口口口 |⑦-⑧-|
40
口口口口 |①-②-|
口口口口 |③-④-|
④⑧⑥② |⑤-⑥-|
③⑦⑤① |⑦-⑧-|
41
口口⑤口 |①-②-|
口口口⑤ |③-④-|
④口口② |⑤---|
③口口①
42
①②口口 |①-②-|
③④口口 |③-④-|
口口⑧⑦ |⑤-⑥-|
口口⑥⑤ |⑦-⑧-|
43
⑦⑧口口 |①-②-|
⑤⑥口口 |③-④-|
③④口口 |⑤-⑥-|
①②口口 |⑦-⑧-|
44
口口口口 |①②③-|
口口口口
口口口口
口③②①
45
口口②③ |①-②-|
口口口④ |--③-|
①口口⑤ |--④-|
口口口口 |--⑤-|
46
口口口口 |①-②-|
口口①口 |--③-|
口口口口 |--④-|
⑤④③② |--⑤-|
47
④⑤口口 |①-②-|
③口①口 |--③-|
②口口口 |--④-|
口口口口 |--⑤-|
48
口口②③ |①-②-|
口口口④ |--③-|
口①口⑤ |--④-|
口口口口 |--⑤-|
49
②口口口 |①-②-|
③口①口 |--③-|
④口口口 |--④-|
⑤口口口 |--⑤-|
50
口口口口 |①-②-|
口口①口 |--③-|
口口口⑤ |--④-|
口②③④ |--⑤-|
51
口⑤④③ |①-②-|
口口口② |--③-|
口①口口 |--④-|
口口口口 |--⑤-|
52
②口口口 |①-②-|
③口①口 |--③-|
口口口口 |--④-|
口口口④
53
口口口口 |--①-|
口②口口 |②-③-|
口口口⑤ |--④-|
④③①口 |--⑤-|
54
口②口口 |--①-|
口口口口 |②-③-|
④③①口 |--④-|
口口口口
55
口口口口 |--①-|
⑤④②① |--②-|
口口口口 |③-④-|
口③口口 |--⑤-|
56
⑤④②① |--①-|
口口口口 |--②-|
口③口口 |③-④-|
口口口口 |--⑤-|
57
口口口口 |--①-|
口口口口 |--②-|
口③口口 |③-④-|
⑤④②① |--⑤-|
58
口口口口 |--①-|
口④②① |--②-|
口③口口 |③-④-|
口口口口
59
口⑤③② |--①-|
①口口口 |--②-|
口④口口 |--③-|
口口口口 |④-⑤-|
60
①口口口 |--①-|
③④⑤口 |--②-|
口口②口 |③④⑤-|
口口口口
61
⑤⑥⑦⑧ |①-②-|
口口口口 |③-④-|
①①口④ |⑤-⑥-|
③③②口 |⑦-⑧-|
62
口口口口 |①-②-|
口口②①
口口口口
口口口口
63
口口口⑦ |①-②-|
①①口⑧ |③-④-|
③③②④ |⑤-⑥-|
口⑤⑥口 |⑦-⑧-|
64
①④③口 |①-②-|
②口口口 |③-④-|
口口⑤⑤ |⑤-⑥-|
口⑥口口
65
口⑧⑦③ |①-②-|
⑥⑤④③ |③-④-|
②口口口 |⑤-⑥-|
口口①① |⑦-⑧-|
66
口口口口 |①-②-|
口口口口
口口口口
①②口口
67
口口口⑤ |①-②-|
⑧⑦⑥⑤ |③-④-|
④②①① |⑤-⑥-|
口口③③ |⑦-⑧-|
68
①②口口 |①-②-|
口口口口
口口口口
口口口口
69
口口⑥⑤ |①-②-|
口口口⑤ |③-④-|
④②①① |⑤-⑥-|
口口③③
70
①②⑧口 |①-②-|
①口③⑦ |③-④-|
口④口口 |⑤-⑥-|
⑤⑥口口 |⑦-⑧-|
71
②口口口 |①-②-|
口①口口
口口口口
口口口口
72
⑧②口⑤ |①-②-|
口⑦口⑤ |③-④-|
④口①① |⑤-⑥-|
口⑥③③ |⑦-⑧-|
73
口②①口 |①-②-|
⑥口③口 |③-④-|
口④口口 |⑤-⑥-|
口口⑤⑤
74
⑥⑤④③ |①-②-|
口⑧⑦③ |③-④-|
口口①① |⑤-⑥-|
②口口口 |⑦-⑧-|
75
口口口口 |①-②-|
口口口口
口口口口
口②①口
76
口口口⑤ |①-②-|
⑧⑦⑥⑤ |③-④-|
③④②① |⑤-⑥-|
③口口① |⑦-⑧-|
77
①②口口 |①-②-|
口口口口
口口口口
口口口口
78
口口⑤口 |①-②-|
⑥口口⑤ |③-④-|
③口口① |⑤-⑥-|
③④②①
79
②④④② |①---|
口①①口 |----|
口①①口 |②-③-|
③口口③ |--④-|
80
口口口口 |①-②-|
⑤④③② |③-④-|
⑤④③② |⑤---|
口①①口
81
②口口① |①---|
口口口③ |②---|
⑥⑤口口 |③-④-|
①口④② |⑤-⑥-|
82
⑤⑥③④ |①-②-|
①②⑦⑧ |③-④-|
口口口口 |⑤-⑥-|
口口口口 |⑦-⑧-|
83
口口口口 |①-②-|
口口口口 |③-④-|
⑤⑤口① |⑤---|
口②③④
84
口②①口 |①-②-|
口④③口 |③-④-|
口口⑤口 |⑤---|
口口口口
85
口⑦口⑦ |①-②-|
口⑥⑤口 |③-④-|
④口口③ |⑤-⑥-|
②口口① |⑦---|
86
⑧⑦⑥口 |①-②-|
④口口⑤ |③-④-|
口③②口 |⑤-⑥-|
口口口① |⑦-⑧-|
87
⑯⑮⑭⑬ |①②③④|
⑫⑪⑩⑨ |⑤⑥⑦⑧|
⑧⑦⑥⑤ |⑨⑩⑪⑫|
④③②① |⑬⑭⑮⑯|
88
口口口口 |①---|
口口口口 |----|
口口口口 |----|
口口口① |----|
89
口口口口 |①---|
口口口口 |----|
口口口口 |----|
口口①口 |----|
90
口口口口 |----|
口口口口 |----|
口口口口
口口口口
91
口口口口 |①---|
口口口口 |----|
口口口口 |----|
口①口口 |----|
92
口口口口 |----|
口口口口 |----|
口口口口 |----|
口口口口
93
口口口口 |①---|
口口口口 |----|
口口口口 |----|
①口口口 |----|
94
口口口口 |----|
口口口口 |----|
口口口口 |----|
口口口口 |----|
95
口口口口 |----|
口口口口
口口口口
口口口口
96
口口②③ |①-②-|
口口口④ |--③-|
①①口⑤ |--④-|
口口口口 |--⑤-|
97
口口口口 |①-②-|
口口①口 |--③-|
口口口口 |--④-|
⑤④③② |--⑤-|
98
④⑤口口 |①-②-|
③口①口 |--③-|
②口口口 |--④-|
口口口口 |--⑤-|
99
口口②③ |①-②-|
口口口④ |--③-|
口①口⑤ |--④-|
口口口口 |--⑤-|
100
②口口口 |①-②-|
③口①口 |--③-|
④口口口 |--④-|
⑤口口口 |--⑤-|
101
口口口口 |①-②-|
口口①口 |--③-|
口口口⑤ |--④-|
口②③④ |--⑤-|
102
口⑤④③ |①-②-|
口口口② |--③-|
口①口口 |--④-|
口口口口 |--⑤-|
103
②口口口 |①-②-|
口口①口 |--③-|
口③④④ |④---|
口口④口 |----|
104
⑧口①① |①-②-|
口⑦③③ |③-④-|
④口⑥口 |⑤-⑥-|
②口口⑤ |⑦-⑧-|
105
口口口口 |①-②-|
口口口口
口口口①
口②口口
106
口④①① |①-②-|
口口③③ |③-④-|
②⑦⑥口 |⑤-⑥-|
⑧口口⑤ |⑦-⑧-|
107
④口⑤⑤ |①-②-|
②口口口 |③-④-|
口口口① |⑤-⑥-|
口⑥③口
108
口②口口 |①-②-|
口口①① |③-④-|
⑧⑦③③ |⑤-⑥-|
④口⑥⑤ |⑦-⑧-|
109
口口口口 |①-②-|
①②口口
口口口口
口口口口
110
②口①① |①-②-|
口口③③ |③-④-|
⑧口口⑤ |⑤-⑥-|
④⑦⑥口 |⑦-⑧-|
111
口口口口 |①-②-|
口口口口
口②①口
口口口口
112
②口口口 |①-②-|
口⑥口口 |③-④-|
口口口③ |⑤-⑥-|
④口⑤①
113
口口①① |①-②-|
⑧口③③ |③-④-|
④⑦⑥口 |⑤-⑥-|
口②口⑤ |⑦-⑧-|
114
口口口口 |①-②-|
口口口口
口口口①
口②口口
115
口④①① |①-②-|
口口③③ |③-④-|
②⑦⑥口 |⑤-⑥-|
⑧口口⑤ |⑦-⑧-|
116
④口⑤⑤ |①-②-|
②口口口 |③-④-|
口口口① |⑤-⑥-|
口⑥③口
117
口②口口 |①-②-|
口口①① |③-④-|
⑧⑦③③ |⑤-⑥-|
④口⑥⑤ |⑦-⑧-|
118
口口口口 |①-②-|
①②口口
口口口口
口口口口
119
②口①① |①-②-|
口口③③ |③-④-|
⑧口口⑤ |⑤-⑥-|
④⑦⑥口 |⑦-⑧-|
120
④口口口 |①-②-|
口⑧口口 |③-④-|
口②①⑤ |⑤-⑥-|
⑥口⑦③ |⑦-⑧-|
121
口口①① |①-②-|
⑧口③③ |③-④-|
④⑦⑥口 |⑤-⑥-|
口②口⑤ |⑦-⑧-|
122
口⑥③③ |①-②-|
口口⑤⑤ |③-④-|
④口⑧① |⑤-⑥-|
口②口⑦ |⑦-⑧-|
123
⑥口⑦⑦ |①-②-|
④口口口 |③-④-|
口①口③ |⑤-⑥-|
②⑧⑤口 |⑦-⑧-|
124
口②口口 |①-②-|
口口①① |③-④-|
⑧⑦③③ |⑤-⑥-|
④口⑥⑤ |⑦-⑧-|
125
④口③③ |①-②-|
①②⑤⑤ |③-④-|
口口口⑦ |⑤-⑥-|
⑥口⑧口 |⑦-⑧-|
126
⑧⑧⑦⑦ |①-②-|
⑥口口⑤ |③-④-|
②④③口 |⑤-⑥-|
⑥①口⑤ |⑦-⑧-|
127
口口口口 |①-②-|
口口口口
②口口①
口②①口
128
口口②② |①---|
口①①③ |----|
口口口口 |②-③-|
④④口口 |--④-|
129
④⑤口口 |①-②-|
④⑥⑥口 |③-④-|
①⑥⑥② |⑤---|
口口③③ |⑥---|

不確定度: 0

最終更新:2014年11月06日 17:08