滅亡天使 † にこきゅっぴん
日向美ビタースイーツ♪

BASIC

Level: 2
BPM: 200
Notes: 152

1
口口口口 |----|
口口口口 |----|
口口口口 |----|
口口口口 |----|
2
口口口口 |----|
口口口口 |----|
口口口口 |----|
口口口口 |----|
3
口口口口 |①---|
口口口口 |----|
口口口口 |----|
口口①口 |----|
4
口口口口 |----|
口口口口 |----|
口口口口 |----|
口口口口 |----|
5
口口口口 |----|
口口口口 |----|
口口口口 |----|
口口口口 |----|
6
口口口口 |----|
口口口口 |----|
口口口口 |----|
口口口口 |----|
7
口口口口 |①---|
口口口口 |----|
口①①口 |----|
口口口口 |----|
8
口口口口 |①---|
口①①口 |----|
口口口口 |----|
口口口口 |----|
9
口①①口 |①---|
口口口口 |----|
口口口口 |----|
口口口口 |----|
10
①口口① |①---|
②口口② |----|
口口口口 |②---|
口口口口 |----|
11
口②口口 |①---|
口口口口 |----|
口①口口 |②---|
口口口口 |----|
12
口口②口 |①---|
口口口口 |----|
口口①口 |②---|
口口口口 |----|
13
口②口口 |①---|
口口口口 |----|
口①口口 |②---|
口口口口 |----|
14
口口口口 |①---|
②①①② |----|
口口口口 |②---|
口口口口 |----|
15
口②口口 |①---|
口口口口 |----|
口①口口 |②---|
口口口口 |----|
16
口口②口 |①---|
口口口口 |----|
口口①口 |②---|
口口口口 |----|
17
口②口口 |①---|
口口口口 |----|
口①口口 |②---|
口口口口 |----|
18
口口口口 |①---|
②①①② |----|
口口口口 |②---|
口口口口 |----|
19
口口口口 |----|
口口口口 |----|
口口口口 |----|
口口口口 |----|
20
口口口口 |----|
口口口口 |----|
口口口口 |----|
口口口口 |----|
21
口口口口 |①---|
口①口口 |----|
口②口口 |②---|
口口口口 |----|
22
口口口口 |①---|
口口口口 |----|
口口口口 |②---|
②①口口 |----|
23
口口口口 |①---|
②口口口 |----|
①口口口 |②---|
口口口口 |----|
24
①②口口 |①---|
口口口口 |----|
口口口口 |②---|
口口口口 |----|
25
口口口口 |①---|
口①②口 |----|
口口口口 |②---|
口口口口 |----|
26
口口口口 |①---|
口口口口 |----|
口①②口 |②---|
口口口口 |----|
27
口口口口 |①---|
口口口口 |----|
口口口口 |----|
口①口口 |----|
28
口口口口 |----|
口口口口 |----|
口口口口 |----|
口口口口 |----|
29
口口口口 |①---|
口口①口 |----|
口口②口 |②---|
口口口口 |----|
30
口口口口 |①---|
口口口口 |----|
口口口口 |②---|
口口①② |----|
31
口口口口 |①---|
口口口② |----|
口口口① |②---|
口口口口 |----|
32
口口②① |①---|
口口口口 |----|
口口口口 |②---|
口口口口 |----|
33
口口口口 |①---|
口②①口 |----|
口口口口 |②---|
口口口口 |----|
34
口口口口 |①---|
口口口口 |----|
口②①口 |②---|
口口口口 |----|
35
口口口口 |①---|
口口口口 |----|
口口口口 |----|
口口①口 |----|
36
口口口口 |----|
口口口口 |----|
口口口口 |----|
口口口口 |----|
37
口口口口 |①---|
口口口口 |----|
口口口口 |----|
①口口口 |----|
38
口口口口 |①---|
口口口口 |----|
口①口口 |----|
口口口口 |----|
39
口口口口 |①---|
口口口口 |----|
口口口口 |----|
口①口口 |----|
40
口口口口 |①---|
口口口口 |----|
口口①口 |----|
口口口口 |----|
41
口口口口 |①---|
口口口口 |----|
口口口口 |----|
口口①口 |----|
42
口口口口 |①---|
口口口口 |----|
口口口① |----|
口口口口 |----|
43
口口口口 |①---|
口①①口 |----|
口口口口 |----|
口口口口 |----|
44
口①①口 |①---|
口口口口 |----|
口口口口 |----|
口口口口 |----|
45
①口口口 |①---|
口口口口 |----|
口口口口 |----|
口口口口 |----|
46
口口口口 |①---|
①口口口 |----|
口口口口 |----|
口口口口 |----|
47
口口口口 |①---|
口口口口 |----|
①口口口 |----|
口口口口 |----|
48
口口口口 |①---|
口口口口 |----|
口口口口 |----|
①口口口 |----|
49
口口口口 |①---|
口口口口 |----|
口口口口 |----|
口①口口 |----|
50
口口口口 |①---|
口口口口 |----|
口口口口 |----|
口口①口 |----|
51
口口口口 |①---|
口口口口 |----|
口口口口 |----|
口口口① |----|
52
口口口口 |①---|
口口口口 |----|
口口口① |----|
口口口口 |----|
53
口口口口 |①---|
口口口① |----|
口口口口 |----|
口口口口 |----|
54
口口口① |①---|
口口口口 |----|
口口口口 |----|
口口口口 |----|
55
口口口口 |①---|
口口口口 |----|
口①①口 |----|
口口口口 |----|
56
口口口口 |①---|
口口口口 |----|
口口口口 |②---|
①口口② |----|
57
②口口② |①---|
口口口口 |----|
口①①口 |②---|
口口口口 |----|
58
②口口② |①---|
口口口口 |----|
口①①口 |②---|
口口口口 |----|
59
口口口口 |①---|
口①②口 |----|
口口口口 |②---|
口口口口 |----|
60
口口口口 |①---|
口口口① |----|
口口口口 |----|
口口口口 |----|
61
②口口② |①---|
口口口口 |----|
口①①口 |②---|
口口口口 |----|
62
②口口② |①---|
口口口口 |----|
口①①口 |②---|
口口口口 |----|
63
口口口口 |①---|
口②①口 |----|
口口口口 |②---|
口口口口 |----|
64
口口口口 |①---|
①口口口 |----|
②口口口 |②---|
口口口口 |----|
65
②口口② |①---|
口口口口 |----|
口①①口 |②---|
口口口口 |----|
66
②口口② |①---|
口口口口 |----|
口①①口 |②---|
口口口口 |----|
67
口口口口 |①---|
口①②口 |----|
口口口口 |②---|
口口口口 |----|
68
口口口口 |①---|
口口口① |----|
口口口口 |----|
口口口口 |----|
69
②口口② |①---|
口口口口 |----|
口①①口 |②---|
口口口口 |----|
70
②口口② |①---|
口口口口 |----|
口①①口 |②---|
口口口口 |----|
71
口口口口 |①---|
口②①口 |----|
口口口口 |②---|
口口口口 |----|
72
口口口口 |①---|
①口口口 |----|
②口口口 |②---|
口口口口 |----|
73
口口口口 |①---|
口口口口 |----|
口口口口 |----|
口①口口 |----|
74
口口口口 |①---|
口口口口 |----|
口口口口 |----|
口口①口 |----|
75
口口口口 |①---|
口口口口 |----|
①①口口 |----|
口口口口 |----|
76
口口口口 |①---|
口口口口 |----|
口口①① |----|
口口口口 |----|
77
口口口口 |①---|
口①①口 |----|
口口口口 |----|
口口口口 |----|
78
口口口口 |----|
口口口口 |----|
口口口口 |----|
口口口口 |----|
79
①口口口 |①---|
口②口口 |----|
口口口口 |②---|
口口口口 |----|
80
口口口口 |①---|
口口口口 |----|
口口①口 |②---|
口口口② |----|
81
口口口口 |①---|
口口口口 |----|
口口口① |②---|
口口②口 |----|
82
口口口口 |①---|
口口口口 |----|
②口口口 |②---|
口①口口 |----|
83
口口口口 |①---|
口口口口 |----|
口②口口 |②---|
①口口口 |----|
84
口口口② |①---|
口口①口 |----|
口口口口 |②---|
口口口口 |----|
85
口口②口 |①---|
口口口① |----|
口口口口 |②---|
口口口口 |----|
86
口①口口 |①---|
②口口口 |----|
口口口口 |②---|
口口口口 |----|
87
①口口口 |①---|
口口口口 |----|
口口口口 |----|
口口口口 |----|

不確定度: 0

最終更新:2014年11月02日 02:36