滅亡天使 † にこきゅっぴん
日向美ビタースイーツ♪

ADVANCED

Level: 5
BPM: 200
Notes: 318

1
口口口口 |----|
口口口口 |----|
口口口口 |----|
口口口口 |----|
2
口口口口 |----|
口口口口 |----|
口口口口 |----|
口口口口 |----|
3
口口口口 |①---|
口①①口 |----|
②口口口 |②---|
口口口口 |----|
4
口口口口 |①---|
口口口口 |----|
口口口口 |②---|
口①②口 |----|
5
口口口口 |①---|
口口口② |----|
口口口① |②---|
口口口口 |----|
6
口②①口 |①---|
口口口口 |----|
口口口口 |②---|
口口口口 |----|
7
口口口口 |①---|
口①①口 |----|
②口口口 |②---|
口口口口 |----|
8
口口口口 |①---|
口口口口 |----|
口口口② |②---|
口①①口 |----|
9
口②②口 |①---|
口①①口 |----|
口口口口 |②---|
口口口口 |----|
10
④口口④ |①---|
③口口③ |②---|
②口口② |③---|
①口口① |④---|
11
口口口口 |①---|
口①②③ |②---|
口口口口 |③---|
口口口口 |----|
12
口口口口 |①---|
口口口口 |②---|
④口口① |③---|
口③②口 |④---|
13
口口口口 |①---|
③②①口 |②---|
口口口口 |③---|
口口口口 |----|
14
③口口③ |①---|
口口口口 |----|
口①①口 |②---|
②口口② |③---|
15
口口口口 |①---|
口①②③ |②---|
口口口口 |③---|
口口口口 |----|
16
口口口口 |①---|
口口口口 |②---|
④口口① |③---|
口③②口 |④---|
17
口口口口 |①---|
③②①口 |②---|
口口口口 |③---|
口口口口 |----|
18
③口口③ |①---|
口口口口 |----|
口①①口 |②---|
②口口② |③---|
19
口口口口 |①---|
口①口口 |----|
口口②口 |②---|
口口口口 |----|
20
口①口口 |①--②|
口口口② |--③-|
③口口口 |----|
口口口口 |----|
21
口口口① |①---|
②口口口 |②---|
口口口③ |③---|
④口口口 |④---|
22
口①口口 |①---|
口②口口 |②---|
③口口口 |③---|
④口口口 |④---|
23
①口口口 |①---|
口口口② |②---|
③口口口 |③---|
口口口④ |④---|
24
口口①口 |①---|
④口②④ |②---|
口③③口 |③---|
口口口口 |④---|
25
①②口① |①---|
④口口④ |②---|
口③③口 |③---|
口口口口 |④---|
26
①口②① |①---|
④口口④ |②---|
口③③口 |③---|
口口口口 |④---|
27
①口口① |①---|
口②口口 |----|
口口口口 |②---|
口口口口 |----|
28
口口口口 |①---|
口口口口 |②---|
口口口口 |③---|
①②③④ |④---|
29
①口口口 |①---|
口口口② |②---|
③口口口 |③---|
口口口④ |④---|
30
口口①口 |①---|
口口②口 |②---|
口口口③ |③---|
口口口④ |④---|
31
口口口① |①---|
②口口口 |②---|
口口口③ |③---|
④口口口 |④---|
32
口①口口 |①---|
④②口④ |②---|
口③③口 |③---|
口口口口 |④---|
33
①口②① |①---|
④口口④ |②---|
口③③口 |③---|
口口口口 |④---|
34
①②口① |①---|
④口口④ |②---|
口③③口 |③---|
口口口口 |④---|
35
①口口① |①---|
口口口口 |----|
口口口口 |----|
口口口口 |----|
36
口口口口 |----|
口口口口 |----|
口口口口 |----|
口口口口 |----|
37
①口口② |①---|
口口口口 |②---|
口口口口 |③---|
③口口④ |④---|
38
口口口口 |①---|
口①②口 |②---|
口③④口 |③---|
口口口口 |④---|
39
口口口口 |①---|
口口口口 |②---|
③口口④ |③---|
①口口② |④---|
40
③口口口 |①---|
①口口② |②---|
口口口口 |③---|
口口口口 |----|
41
口口①口 |----|
口②口口 |①---|
口口③口 |②---|
口口口口 |③---|
42
口口口口 |①---|
口口②口 |----|
口口口口 |②---|
口①口口 |----|
43
①①口口 |①---|
口口口口 |----|
口口口口 |----|
口口口口 |----|
44
口口①① |①---|
口口口口 |----|
口口口口 |----|
口口口口 |----|
45
口口口口 |①---|
口①①口 |----|
口口口口 |----|
口口口口 |----|
46
口口口口 |①---|
口口口口 |----|
口①①口 |----|
口口口口 |----|
47
①口口① |①---|
口口口口 |----|
口口口口 |----|
口口口口 |----|
48
口口口口 |①---|
口口口口 |----|
口口口口 |----|
①口口① |----|
49
口口口口 |①---|
口①①口 |----|
口口口口 |----|
口口口口 |----|
50
口口口口 |①---|
口口口口 |----|
口①①口 |----|
口口口口 |----|
51
①口口① |①---|
口口口口 |----|
口口口口 |----|
口口口口 |----|
52
口口口口 |①---|
口口口口 |----|
口口口口 |----|
①口口① |----|
53
口口口口 |①---|
口①①口 |----|
口口口口 |----|
口口口口 |----|
54
①口口② |①-②-|
口③④口 |--③-|
口口口口 |④---|
口口口口 |----|
55
③口口③ |①---|
②口口② |②---|
口①①口 |③---|
口口口口 |----|
56
口口口口 |----|
口口口口 |----|
口口口口 |----|
口口口口 |----|
57
①①口口 |①---|
②②口口 |②---|
③③口口 |③---|
口口口口 |----|
58
口口①① |①---|
口口②② |②---|
口口③③ |③---|
口口口口 |----|
59
口口口口 |①---|
口口口口 |②---|
口③④口 |③---|
口①②口 |④---|
60
口③口口 |①---|
口①②口 |②---|
口口口口 |③---|
口口口口 |----|
61
口口①① |①---|
口口②② |②---|
口口③③ |③---|
口口口口 |----|
62
①①口口 |①---|
②②口口 |②---|
③③口口 |③---|
口口口口 |----|
63
口口口口 |①---|
口口口口 |②---|
口④③口 |③---|
口②①口 |④---|
64
口口③口 |①---|
口②①口 |②---|
口口口口 |③---|
口口口口 |----|
65
①①口口 |①---|
②②口口 |②---|
③③口口 |③---|
口口口口 |----|
66
口口①① |①---|
口口②② |②---|
口口③③ |③---|
口口口口 |----|
67
口口口口 |①---|
口口口口 |②---|
口③④口 |③---|
口①②口 |④---|
68
口③口口 |①---|
口①②口 |②---|
口口口口 |③---|
口口口口 |----|
69
口口①① |①---|
口口②② |②---|
口口③③ |③---|
口口口口 |----|
70
①①口口 |①---|
②②口口 |②---|
③③口口 |③---|
口口口口 |----|
71
口口口口 |①---|
口口口口 |②---|
口④③口 |③---|
口②①口 |④---|
72
口口③口 |①---|
口②①口 |②---|
口口口口 |③---|
口口口口 |----|
73
①①口口 |①---|
口口口口 |----|
②②口口 |②---|
口口口口 |----|
74
口口①① |①---|
口口口口 |----|
口口②② |②---|
口口口口 |----|
75
口口口口 |①---|
①①口口 |----|
口口口口 |②---|
②②口口 |----|
76
口口口口 |①---|
口口①① |----|
口口口口 |②---|
口口②② |----|
77
口口口口 |①---|
口口口口 |----|
口①①口 |----|
口口口口 |----|
78
①口口口 |----|
口口口口 |----|
口口口口 |----|
口口口口 |①---|
79
口口口口 |①---|
口①②③ |②---|
口口口口 |③---|
口口口口 |----|
80
口口口口 |①---|
口口口口 |②---|
④口口① |③---|
口③②口 |④---|
81
口口口口 |①---|
③②①口 |②---|
口口口口 |③---|
口口口口 |----|
82
③口口③ |①---|
口口口口 |----|
口①①口 |②---|
②口口② |③---|
83
口口口口 |①---|
口①②③ |②---|
口口口口 |③---|
口口口口 |----|
84
口口口口 |①---|
口口口口 |②---|
④口口① |③---|
口③②口 |④---|
85
口口口口 |①---|
③②①口 |②---|
口口口口 |③---|
口口口口 |----|
86
③口口③ |①---|
口口口口 |----|
口①①口 |②---|
②口口② |③---|
87
口口口口 |①---|
口①①口 |----|
口口口口 |----|
口口口口 |----|

不確定度: 0

最終更新:2014年11月02日 02:35