planarian
S-C-U

BASIC

Level: 3
BPM: 164
Notes: 232

1
口口口口 |----|
口口口口 |----|
口口口口 |----|
口口口口 |----|
2
①口口口 |①---|
口口口口 |----|
口口口口 |----|
口口口口 |----|
3
口①口口 |①---|
口口口口 |----|
口口口口 |----|
口口口口 |----|
4
口口①口 |①---|
口口口口 |----|
口口口口 |----|
口口口口 |----|
5
口口口① |①---|
口口口口 |----|
口口口口 |----|
口口口口 |----|
6
口口口口 |①---|
口口①口 |----|
口口口口 |----|
口口口口 |----|
7
口口口口 |①---|
口口口口 |----|
口①口口 |----|
口口口口 |----|
8
口口口口 |①---|
口口口口 |②---|
口口口口 |③---|
①②③④ |④---|
9
口口口口 |①---|
口②②口 |----|
口①①口 |②---|
口口口口 |----|
10
①口口① |①---|
口②口口 |②---|
口④③口 |③---|
口口口口 |④---|
11
口口口口 |①---|
口口口口 |②---|
口口口口 |③---|
③①②④ |④---|
12
口口口口 |①---|
口口口口 |----|
口①口口 |----|
口口口口 |----|
13
口口①口 |①---|
口口②口 |②---|
口口③口 |③---|
口口④口 |④---|
14
口口口口 |①---|
口口口口 |----|
口①口口 |----|
口口口口 |----|
15
口口口口 |----|
口口口口 |----|
口口口口 |----|
口口口口 |----|
16
口口口口 |①---|
口口口① |②---|
④口②口 |③---|
口③口口 |④---|
17
口③口口 |①---|
口①②口 |②---|
口口口口 |③---|
口口口口 |----|
18
口口口口 |①---|
口口口口 |----|
口②②口 |②---|
口①①口 |----|
19
口②③口 |①---|
①口口① |----|
口口口口 |②---|
口口口口 |③---|
20
口口口口 |①---|
口①口口 |----|
口口②口 |②---|
口口口口 |----|
21
口口口口 |----|
口口口口 |----|
口口口口 |----|
①口口口 |①---|
22
口③口口 |①---|
口②口口 |②---|
口①口口 |③---|
口口口口 |----|
23
口口口① |----|
口口口口 |----|
口口口口 |----|
口口口口 |①---|
24
口口口口 |①---|
口口①口 |②---|
口口②口 |③---|
口④③口 |④---|
25
④③口口 |①---|
口②口口 |②---|
口①口口 |③---|
口口口口 |④---|
26
口口口口 |①---|
口口口口 |----|
口②②口 |②---|
口①①口 |----|
27
口②③口 |①---|
①口口① |----|
口口口口 |②---|
口口口口 |③---|
28
①口口④ |①---|
口②③口 |②---|
口口口口 |③---|
口口口口 |④---|
29
②口①口 |①---|
口口口口 |----|
口口口口 |----|
口口口口 |②---|
30
口①口口 |①---|
口②口口 |②---|
口③口口 |③---|
口④口口 |④---|
31
口口口② |①---|
口口口口 |----|
口口口口 |----|
口口①口 |②---|
32
口口口口 |①---|
口口①口 |②---|
口口②口 |③---|
口④③口 |④---|
33
④③口口 |①---|
口②口口 |②---|
口①口口 |③---|
口口口口 |④---|
34
口口口口 |----|
口③③① |①---|
口口口口 |②---|
口②②口 |--③-|
35
口口口口 |----|
①口口口 |①---|
口③②口 |②---|
口口口口 |③---|
36
口口口口 |----|
口③③① |①---|
口口口口 |②---|
口②②口 |--③-|
37
口口口口 |----|
①口口口 |①---|
口口②口 |----|
口口口口 |②---|
38
口口口口 |①---|
口①②口 |----|
口口口口 |②---|
口口口口 |----|
39
口口口口 |----|
口口口口 |----|
口口口口 |----|
口口口口 |----|
40
口口口口 |①---|
口口口口 |----|
口口口口 |②---|
口①②口 |----|
41
口口口口 |----|
口口口口 |----|
口口口口 |----|
口口口口 |----|
42
口口口口 |①---|
口④④② |②---|
口口①口 |③---|
口③③口 |--④-|
43
口口口口 |----|
①口口口 |①---|
口③②口 |②---|
口口口口 |③---|
44
口口口口 |----|
口③③① |①---|
口口口口 |②---|
口②②口 |--③-|
45
口口口口 |----|
①口口口 |①---|
口口②口 |----|
口口口口 |②---|
46
口①口口 |①---|
口口②口 |----|
口口口口 |②---|
口口口口 |----|
47
口口口口 |----|
口口口口 |----|
口口口口 |----|
口口口口 |----|
48
口口①口 |①---|
口②口口 |----|
口口口口 |②---|
口口口口 |----|
49
口口口口 |①---|
口口口口 |----|
口口①口 |②---|
口②口口 |----|
50
口口口口 |①---|
口口口口 |----|
①口口① |----|
口口口口 |----|
51
口口口口 |----|
口口口口 |----|
口口口口 |----|
口口口口 |----|
52
口口口口 |①---|
口④④口 |②---|
口③③口 |③---|
①口口② |④---|
53
①口口② |①---|
口③③口 |②---|
口④④口 |③---|
口口口口 |④---|
54
口口口口 |①---|
口④④口 |②---|
口③③口 |③---|
①口口② |④---|
55
①口口② |①---|
口③③口 |②---|
口④④口 |③---|
口口口口 |④---|
56
④口口口 |①---|
③口口口 |②---|
②口口口 |③---|
①口口口 |④---|
57
口口口① |①---|
口口口② |②---|
口口口③ |③---|
口口口④ |④---|
58
口口口口 |①---|
口口口口 |②---|
口③④口 |③---|
口①②口 |④---|
59
口③④口 |①---|
口①②口 |②---|
口口口口 |③---|
口口口口 |④---|
60
口口口口 |①---|
④口口④ |②---|
③口口③ |③---|
口①②口 |④---|
61
口①②口 |①---|
③口口③ |②---|
④口口④ |③---|
口口口口 |④---|
62
口口口口 |①---|
④口口④ |②---|
③口口③ |③---|
口①②口 |④---|
63
口①②口 |①---|
③口口③ |②---|
④口口④ |③---|
口口口口 |④---|
64
口④口口 |①---|
口③口口 |②---|
口②口口 |③---|
口①口口 |④---|
65
口口④口 |①---|
口口③口 |②---|
口口②口 |③---|
口口①口 |④---|
66
④口口口 |①---|
③口口口 |②---|
②口口口 |③---|
①口口口 |④---|
67
口口口④ |①---|
口口口③ |②---|
口口口② |③---|
口口口① |④---|
68
口口口口 |①---|
口①①口 |----|
口口口口 |----|
口口口口 |----|
69
口口口口 |①---|
口口口口 |②---|
①②③④ |③---|
口口口口 |④---|
70
口口口口 |①---|
口口口口 |----|
口口口口 |----|
口①口口 |----|
71
口口口口 |①---|
口口口口 |②---|
④③②① |③---|
口口口口 |④---|
72
口②口口 |①---|
口口①口 |----|
口口口口 |②---|
口口口口 |----|
73
口口口口 |----|
口口口口 |----|
口口口口 |----|
口口口口 |----|
74
口口口口 |①---|
①②③④ |②---|
口口口口 |③---|
口口口口 |④---|
75
口口口口 |①---|
口口口口 |②---|
①②③④ |③---|
口口口口 |④---|
76
口口口口 |①---|
口口口口 |----|
口口口口 |----|
口①口口 |----|

不確定度: 0

最終更新:2014年11月02日 02:32