planarian
S-C-U

ADVANCED

Level: 7
BPM: 164
Notes: 405

1
口口口口 |----|
口口口口 |----|
口口口口 |----|
口口口口 |----|
2
口口①① |①---|
口口口口 |----|
口口口口 |----|
口口口口 |----|
3
口口口口 |①---|
口口①① |----|
口口口口 |----|
口口口口 |----|
4
口口口口 |①---|
①①口口 |----|
②②口口 |②---|
口口口口 |----|
5
口口口口 |①---|
口口口口 |----|
口口口口 |----|
①①口口 |----|
6
口口口② |①---|
口口口口 |--②-|
口①口口 |----|
口口口口 |----|
7
口口口口 |----|
口口口口 |----|
口口口口 |----|
口口口口 |----|
8
口口口① |①---|
口口②口 |②---|
口③口口 |③---|
④口口口 |④---|
9
口④④口 |①--②|
口口口口 |--③-|
②③③② |④---|
口①①口 |----|
10
①口口口 |①---|
口口口口 |----|
口②口口 |----|
口口口口 |--②-|
11
口⑦口⑤ |①-②-|
④③②① |③-④-|
⑧口⑥口 |⑤-⑥-|
口口口口 |⑦-⑧-|
12
口口口① |----|
口口口口 |----|
口口口口 |----|
口口口口 |--①-|
13
口口口口 |①-②-|
①口③口 |③-④-|
⑤②⑦④ |⑤-⑥-|
口⑥口⑧ |⑦-⑧-|
14
口口口② |①---|
口口口口 |--②-|
口口口口 |----|
①口口口 |----|
15
口口口口 |----|
口口口口 |----|
口口口口 |----|
口口口口 |----|
16
口口①口 |①---|
口②口口 |②---|
口口③口 |③---|
口④口口 |④---|
17
口口口① |①-②-|
②口⑦口 |③-④-|
口⑥口③ |⑤-⑥-|
④口⑤口 |⑦---|
18
①口②⑦ |①-②-|
口③⑥口 |③-④-|
④口口口 |⑤--⑥|
口口口⑤ |--⑦-|
19
口口口口 |----|
口②④口 |--①-|
口⑤口口 |②-③-|
①口口③ |④-⑤-|
20
口口③口 |①--②|
口口口② |--③-|
口口口口 |----|
口口①口 |----|
21
口口口口 |----|
口口②口 |----|
口③口口 |--①-|
口口口① |②-③-|
22
口口口口 |①-②-|
口口口② |③-④-|
口口③口 |----|
口④①口 |----|
23
②口口口 |----|
口③口口 |----|
口口口① |--①-|
口口口口 |②-③-|
24
口口⑤口 |①-②-|
④口口口 |-③--|
口②①口 |④--⑤|
③⑥口口 |--⑥-|
25
口口口③ |-①--|
④口口① |②--③|
口②⑤口 |--④-|
口⑥口口 |⑤-⑥-|
26
①口②⑦ |①-②-|
口③⑥口 |③-④-|
④口口口 |⑤--⑥|
口口口⑤ |--⑦-|
27
口口口口 |----|
口②④口 |--①-|
口⑤口口 |②-③-|
①口口③ |④-⑤-|
28
口⑥口① |①--②|
口口⑤口 |--③-|
口口②口 |--④-|
口④口③ |⑤-⑥-|
29
口口口口 |----|
口口②口 |----|
口③口口 |--①-|
口口口① |②-③-|
30
口口④口 |①-②-|
口⑤口② |③---|
口口⑥口 |④--⑤|
③口①口 |--⑥-|
31
②口口口 |----|
口③口口 |----|
口口口① |--①-|
口口口口 |②-③-|
32
口口⑤口 |①-②-|
④口口口 |-③--|
口②①口 |④--⑤|
③⑥口口 |--⑥-|
33
口口③口 |-①--|
口④口① |②--③|
口②⑤口 |--④-|
口⑥口口 |⑤-⑥-|
34
口⑥⑥① |--①-|
口口②口 |②-③-|
⑤③口⑤ |④--⑤|
④口口④ |--⑥-|
35
⑥口口⑥ |--①-|
口①②③ |②-③-|
口⑤⑤口 |④--⑤|
口④④口 |--⑥-|
36
口⑥⑥口 |--①-|
口①口口 |②-③-|
⑤口口⑤ |④--⑤|
④③②④ |--⑥-|
37
①口口口 |--①-|
口③④口 |②-③-|
口⑤②口 |--④-|
口口⑥口 |⑤-⑥-|
38
口②口⑥ |①--②|
口⑤口口 |--③-|
③口口口 |--④-|
①口④口 |⑤-⑥-|
39
⑦④③口 |①-②-|
口⑧口口 |③-④-|
⑥⑤②① |⑤-⑥-|
口口口口 |⑦-⑧-|
40
口口口② |①--②|
口口③口 |--③-|
口口④口 |----|
口口①口 |--④-|
41
口口①口 |①-②-|
口③口口 |③-④-|
⑤⑥⑦⑧ |⑤-⑥-|
口②④口 |⑦-⑧-|
42
口⑥⑥① |--①-|
口口②口 |②-③-|
⑤③口⑤ |④--⑤|
④口口④ |--⑥-|
43
⑥口口⑥ |--①-|
口①②③ |②-③-|
口⑤⑤口 |④--⑤|
口④④口 |--⑥-|
44
口⑥⑥口 |--①-|
口①口口 |②-③-|
⑤口口⑤ |④--⑤|
④③②④ |--⑥-|
45
①口口⑥ |--①-|
口③④口 |②-③-|
口⑤②口 |--④-|
口口口口 |⑤-⑥-|
46
①口口⑥ |①--②|
口⑤口口 |--③-|
③口②口 |--④-|
口口④口 |⑤-⑥-|
47
⑦④③口 |①-②-|
口⑧口口 |③-④-|
⑥⑤②① |⑤-⑥-|
口口口口 |⑦-⑧-|
48
④口⑤② |①--②|
口口③口 |--③-|
口⑥口口 |--④-|
口口①口 |⑤-⑥-|
49
⑧⑦⑥⑤ |①-②-|
口④口口 |③-④-|
口口③① |⑤-⑥-|
②口口口 |⑦-⑧-|
50
口口口口 |①---|
口口口口 |----|
口①①口 |----|
口口口口 |----|
51
口口口口 |----|
口口口口 |----|
口口口口 |----|
口口口口 |----|
52
①①口④ |①--②|
口口口口 |--③-|
口②⑤口 |④--⑤|
③口口⑥ |--⑥-|
53
⑦⑥⑤④ |①--②|
口①口口 |--③-|
口③口口 |④-⑤-|
②口口口 |⑥-⑦-|
54
口口口口 |①--②|
口④①口 |--③-|
口⑥③口 |④--⑤|
⑤口口② |--⑥-|
55
口口口② |①--②|
口口③口 |--③-|
口口口口
口口①口

口口口口
口口口口
口口口口 |④-⑤-|
④⑤⑥⑦ |⑥-⑦-|
56
口③口口 |①--②|
②⑦⑥口 |--③-|
①①口口 |④-⑤-|
口⑤④口 |⑥-⑦-|
57
口口③口 |①--②|
口⑥⑦② |--③-|
口口口① |④-⑤-|
④口口⑤ |⑥-⑦-|
58
①口口④ |①--②|
口口口口 |--③-|
口②⑤口 |④--⑤|
③口口⑥ |--⑥-|
59
口口口口 |①--②|
口①口口 |--③-|
③口口口
口②口口

口口口口
⑦⑥⑤④
口口口口 |④-⑤-|
口口口口 |⑥-⑦-|
60
①①口④ |①--②|
口口口口 |--③-|
口②⑤口 |④--⑤|
③口口⑥ |--⑥-|
61
⑦⑥⑤④ |①--②|
口①口口 |--③-|
口③口口 |④-⑤-|
②口口口 |⑥-⑦-|
62
口口口口 |①--②|
口④①口 |--③-|
口⑥③口 |④--⑤|
⑤口口② |--⑥-|
63
口口口② |①--②|
口口③口 |--③-|
口口口口
口口①口

口口口口
口口口口
口口口口 |④-⑤-|
④⑤⑥⑦ |⑥-⑦-|
64
口③④口 |①-②-|
⑦口口⑧ |③-④-|
口①②口 |⑤-⑥-|
⑤口口⑥ |⑦-⑧-|
65
口③④口 |①-②-|
⑦口口⑧ |③-④-|
口①②口 |⑤-⑥-|
⑤口口⑥ |⑦-⑧-|
66
⑦③④⑧ |①-②-|
口口口口 |③-④-|
⑤①②⑥ |⑤-⑥-|
口口口口 |⑦-⑧-|
67
口口口口 |①-②-|
①②③④ |③-④-|
口口口口 |⑤-⑥-|
⑤⑥⑦⑧ |⑦-⑧-|
68
①口口口 |①---|
口口口口 |----|
口②口口 |----|
口口口口 |--②-|
69
口⑦口⑤ |①-②-|
④③②① |③-④-|
⑧口⑥口 |⑤-⑥-|
口口口口 |⑦-⑧-|
70
口口口① |----|
口口口口 |----|
口口口口 |----|
口口口口 |--①-|
71
口口口口 |①-②-|
①口③口 |③-④-|
⑤②⑦④ |⑤-⑥-|
口⑥口⑧ |⑦-⑧-|
72
口口口② |①---|
口口口口 |--②-|
口口口口 |----|
①口口口 |----|
73
口口口口 |----|
口口口口 |----|
口口口口 |----|
口口口口 |----|
74
口口①口 |①---|
口②口口 |②---|
口口③口 |③---|
口④口口 |④---|
75
口口口① |①-②-|
②口⑦口 |③-④-|
口⑥口③ |⑤-⑥-|
④口⑤口 |⑦---|
76
口①①口 |①---|
口口口口 |----|
口口口口 |----|
口口口口 |----|

不確定度: 0

最終更新:2014年11月02日 02:29