Little Star
REDALiCE feat. Ayumi Nomiya

EXTREME

Level: 9
BPM: 183
Notes: 735

1
口口口口 |----|
口口口口 |----|
口口口口 |----|
口口口口 |----|
2
①③口② |--①-|
口口④口 |--②-|
①⑤⑦② |③④⑤-|
口⑥口口 |⑥-⑦-|
3
③口口③ |①---|
①口口① |②-③-|
口口⑥口 |--④-|
②⑤口④ |--⑤⑥|
4
②口口② |①---|
③①口④ |②---|
口口口口 |③---|
④口口③ |④---|
5
口①①口 |①--②|
口口②口 |--③-|
④口⑥④ |④---|
口⑤③口 |⑤-⑥-|
6
④②②④ |①---|
口口口口 |②-③-|
③口口③ |④---|
①口口① |----|
7
③口口③ |①---|
①口口① |②-③-|
口口⑥口 |--④-|
②⑤口④ |--⑤⑥|
8
②②②② |①---|
③①口④ |②---|
口口口口 |③---|
④口口③ |④---|
9
③口口④ |①---|
口口口口 |②---|
①④③② |③---|
口①②口 |④---|
10
口③④口 |①--②|
③①①④ |--③-|
④口口③ |④---|
②④③② |----|
11
②口口口 |①---|
口口口口 |--②-|
口③口口 |----|
①口口口 |③---|
12
②口①① |①---|
口④③口 |----|
口⑤口口 |②-③-|
口口口口 |④-⑤-|
13
口口②口 |①---|
口③④口 |--②-|
口口②口 |----|
口口口① |③-④-|
14
③⑦④③ |①-②-|
②口⑥② |③---|
①⑤④① |④-⑤⑥|
口口⑧口 |⑦-⑧-|
15
②口口口 |①---|
口口口口 |--②-|
口③口口 |----|
①口口口 |③---|
16
②口①口 |①---|
口④③① |----|
口口⑤口 |②-③-|
口口口口 |④-⑤-|
17
②口口② |①---|
口④④口 |--②-|
口口口口 |----|
①口③① |③-④-|
18
口③②口 |①--②|
①口口④ |--③-|
口③⑥② |④---|
⑤①口④ |⑤-⑥-|
19
①口①口 |①---|
口口口口 |②-③-|
②口口⑤ |----|
口④③口 |④-⑤-|
20
口①口① |①---|
口口口口 |②-③-|
口②⑤口 |----|
口④口③ |④-⑤-|
21
口口口口 |①---|
③①①③ |②-③-|
口口口口 |----|
②口④④ |④---|
22
口①口口 |①---|
②口①③ |②-③-|
②口⑤③ |----|
④口口口 |④-⑤-|
23
①①①口 |①---|
口口口口 |②-③-|
②口口⑤ |----|
口④③口 |④-⑤-|
24
口①①① |①---|
口④口口 |②-③-|
口②口口 |----|
口④口③ |④---|
25
口⑧口④ |①--②|
③⑨③⑤ |--③-|
②⑩②⑥ |④⑤⑥⑦|
①⑪①⑦ |⑧⑨⑩⑪|
26
口⑧口④ |①--②|
③⑨③⑤ |--③-|
②⑩②⑥ |④⑤⑥⑦|
①⑪①⑦ |⑧⑨⑩⑪|
27
①⑧①④ |①--②|
②⑨②⑤ |--③-|
③⑩③⑥ |④⑤⑥⑦|
口⑪口⑦ |⑧⑨⑩⑪|
28
②口②口 |①---|
口④③口 |--②-|
口③④口 |----|
①口①口 |③-④-|
29
口口口⑧ |①-②-|
⑦口口⑥ |③-④-|
⑤口口④ |⑤-⑥-|
③①口② |⑦-⑧-|
30
①口口口 |①---|
口④③④ |②---|
口③②③ |③---|
口④③④ |④---|
31
⑦口①② |①-②-|
⑤口④⑧ |③-④-|
③口⑦口 |⑤-⑥-|
①口⑥口 |⑦-⑧-|
32
口⑦口④ |①-②-|
口⑤⑥口 |③-④-|
口③⑦② |⑤-⑥-|
口①口① |⑦---|
33
⑥口①口 |①---|
④口⑤③ |②-③-|
②口⑥② |④-⑤-|
①口⑦口 |⑥-⑦-|
34
口⑤口口 |①---|
口③⑥口 |②---|
口②口⑤ |③-④-|
口①口④ |⑤-⑥-|
35
⑦口②口 |①-②-|
⑤口⑧④ |③-④-|
③口①⑦ |⑤-⑥-|
①口口⑥ |⑦-⑧-|
36
口⑦②④ |①-②-|
口⑤口口 |③-④-|
口③①⑥ |⑤-⑥-|
口①口⑦ |⑦---|
37
①口①口 |①---|
②口②口 |②-③-|
①口①口
③口③口

口口口口
口口口口
⑤口⑤口 |--④-|
口④口④ |--⑤-|
38
口②口⑥ |--①-|
①③①⑦ |--②③|
口④口⑧ |④⑤⑥⑦|
口⑤口⑨ |⑧⑨--|
39
⑦口②口 |①-②-|
⑤口④⑧ |③-④-|
③口⑦口 |⑤-⑥-|
①口⑥口 |⑦-⑧-|
40
口⑦口④ |①-②-|
口⑤⑥口 |③-④-|
口③⑦② |⑤-⑥-|
口①口① |⑦---|
41
⑥口①口 |①---|
④口⑤③ |②-③-|
②口⑥② |④-⑤-|
①口⑦口 |⑥-⑦-|
42
⑬①⑨⑤ |①②③④|
⑭②⑩⑥ |⑤⑥⑦⑧|
⑮③⑪⑦ |⑨⑩⑪⑫|
⑯④⑫⑧ |⑬⑭⑮⑯|
43
口口口② |①-②-|
口口口口 |--③-|
口③口口
口①口口

口口⑥口
⑤口口④
口口口⑤ |④---|
口⑥口口 |⑤-⑥-|
44
⑤口口⑤ |--①-|
⑥①①⑥ |②-③-|
口②②口 |④---|
③口口④ |⑤-⑥-|
45
口口口口 |①---|
口口①口 |②---|
口②③口 |③---|
口④口口 |④---|
46
④①①口 |①-②-|
②口口⑤ |③-④-|
⑧口⑦③ |⑤-⑥-|
⑥口口口 |⑦-⑧-|
47
⑩①⑩⑤ |①②③④|
口②口⑥ |⑤⑥⑦⑧|
口③口⑦ |⑨---|
⑨④⑨⑧ |⑩---|
48
口口②口 |①---|
口口口口 |----|
①口①口 |----|
口口口口 |②---|
49
口口口口 |①---|
口口口口 |----|
口①②口 |②---|
口②①口 |----|
50
①口口口 |①---|
口②③口 |②---|
口③口口 |③---|
口口口④ |④---|
51
口口口口 |①---|
口口口① |----|
口口口口 |②---|
口②口口 |----|
52
口口②口 |①---|
口口口口 |----|
①口口① |----|
口口口口 |②---|
53
口口口口 |①---|
口口口口 |----|
口②①口 |②---|
口①②口 |----|
54
口口口口 |①---|
口口口口 |----|
口口③口 |----|
①②口① |--②③|
55
③口口④ |①-②-|
①①②② |--③-|
③⑦口④ |④---|
⑤口⑥⑤ |⑤-⑥⑦|
56
口②口口 |①---|
口口①口 |----|
口口口口 |----|
口口口口 |②---|
57
口口口口 |①---|
口口口口 |----|
口①②口 |②---|
口②①口 |----|
58
①口口口 |①---|
口③②口 |②---|
口②口口 |③---|
口口口④ |④---|
59
口②口口 |①---|
口口口① |②---|
①口口口
口口口口

口口④口
口口口⑤
口③③口 |③---|
口口口口 |④-⑤-|
60
口口④口 |①---|
口口口口 |②---|
②③④口 |③---|
①①①① |④---|
61
口口口口 |①---|
口③③口 |②---|
②③④① |③---|
口①①口 |④---|
62
口②④口 |①---|
①口口① |②---|
③口口③ |③---|
①口口① |④---|
63
⑧⑥口⑦ |①-②-|
⑩④⑤⑨ |③-④-|
口②③口 |⑤-⑥-|
口口①口 |⑦⑧⑨⑩|
64
口口①口 |①---|
口④③④ |②---|
口③②③ |③---|
口④③④ |④---|
65
⑦口①② |①-②-|
⑤口④⑧ |③-④-|
③口⑦口 |⑤-⑥-|
①口⑥口 |⑦-⑧-|
66
口⑦口④ |①-②-|
口⑤⑥口 |③-④-|
口③⑦② |⑤-⑥-|
口①口① |⑦---|
67
⑥口①口 |①---|
④口⑤③ |②-③-|
②口⑥② |④-⑤-|
①口⑦口 |⑥-⑦-|
68
口⑤口口 |①---|
口③⑥口 |②---|
口②口⑤ |③-④-|
口①口④ |⑤-⑥-|
69
⑦口②口 |①-②-|
⑤口⑧④ |③-④-|
③口①⑦ |⑤-⑥-|
①口口⑥ |⑦-⑧-|
70
口⑦②④ |①-②-|
口⑤口口 |③-④-|
口③①⑥ |⑤-⑥-|
口①口⑦ |⑦---|
71
①口①口 |①---|
②口②口 |②-③-|
①口①口
③口③口

口口口口
口口口口
⑤口⑤口 |--④-|
口④口④ |--⑤-|
72
口②⑩⑥ |--①-|
①③①⑦ |--②③|
口④口⑧ |④⑤⑥⑦|
口⑤口⑨ |⑧⑨⑩-|
73
⑥口口口 |①-②-|
④口③⑦ |--③-|
②口⑥口 |④-⑤-|
①口⑤口 |⑥-⑦-|
74
口⑦口④ |①-②-|
口⑤⑥口 |③-④-|
口③⑦② |⑤-⑥-|
口①口① |⑦---|
75
⑥口①口 |①---|
④口⑤③ |②-③-|
②口⑥② |④-⑤-|
①口⑦口 |⑥-⑦-|
76
⑬①⑨⑤ |①②③④|
⑭②⑩⑥ |⑤⑥⑦⑧|
⑮③⑪⑦ |⑨⑩⑪⑫|
⑯④⑫⑧ |⑬⑭⑮⑯|
77
口口口② |①-②-|
口口口口 |--③-|
口③口口
口①口口

口口⑥口
⑤口口④
口口口⑤ |④---|
口⑥口口 |⑤-⑥-|
78
⑤口口⑤ |--①-|
⑥①①⑥ |②-③-|
口②②口 |④---|
③口口④ |⑤-⑥-|
79
口口口口 |①---|
口口①口 |②---|
口②③口 |③---|
口④口口 |④---|
80
④①①口 |①-②-|
②口口⑤ |③-④-|
⑧口⑦③ |⑤-⑥-|
⑥口口口 |⑦-⑧-|
81
⑩①⑩⑤ |①②③④|
口②口⑥ |⑤⑥⑦⑧|
口③口⑦ |⑨---|
⑨④⑨⑧ |⑩---|
82
口③口③ |①---|
口口口口 |②-③-|
①②①口
口口口口

口口口口
口口口口
口口⑥口 |--④-|
口⑤口④ |--⑤⑥|
83
②口口② |①---|
③①口④ |②---|
口口口口 |③---|
④口口③ |④---|
84
口①①口 |①--②|
口口②口 |--③-|
④口⑥④ |④---|
口⑤③口 |⑤-⑥-|
85
④②②④ |①---|
口口口口 |②-③-|
③口口③ |④---|
①口口① |----|
86
③口口③ |①---|
①①①① |②-③-|
口口⑥口 |--④-|
②⑤口④ |--⑤⑥|
87
②②②② |①---|
③①口④ |②---|
口口口口 |③---|
④口口③ |④---|
88
③口口④ |①---|
口口口口 |②---|
①④③② |③---|
口①②口 |④---|
89
口③④口 |①--②|
③①①④ |--③-|
④口口③ |④---|
②④③② |----|


不确定度: 0

タグ:

+ タグ編集
  • タグ:

このサイトはreCAPTCHAによって保護されており、Googleの プライバシーポリシー利用規約 が適用されます。

最終更新:2012年12月27日 16:35