Garakuta Doll Play
t+pazolite 「maimai」より

ADVANCED

Level: 9
BPM: 256
Notes: 713

1
口口口口 |----|
口口口口 |----|
口口口口 |----|
口口口口 |----|
2
口口口① |①---|
口口口④ |----|
口③②口 |②-③-|
口口口口 |--④-|
3
口②①口 |----|
口④③口 |----|
口口口口 |①-②-|
口口口口 |③-④-|
4
口口口① |①---|
口口口④ |----|
口③②口 |②-③-|
口口口口 |--④-|
5
口②①口 |----|
口口口口 |----|
口口口口 |①---|
口口口口 |②---|
6
①口口口 |①---|
④口口口 |----|
口②③口 |②-③-|
口口口口 |--④-|
7
口①②口 |----|
口③④口 |----|
口口口口 |①-②-|
口口口口 |③-④-|
8
①口口口 |①---|
④口口口 |----|
口②③口 |②-③-|
口口口口 |--④-|
9
口口口口 |----|
口②①口 |----|
口口口口 |①---|
口口口口 |②---|
10
口口①① |①---|
口口口② |②---|
口口口③ |③---|
口口口④ |④---|
11
口口口口 |①---|
口口口口 |②---|
④口口口 |③---|
③②①口 |④---|
12
②③④口 |①---|
①①口口 |②---|
口口口口 |③---|
口口口口 |④---|
13
口口口① |①---|
口口口② |②---|
口口口③ |③---|
口口口④ |④---|
14
口口口口 |①---|
口口口口 |②---|
④口①口 |③---|
③②①口 |④---|
15
②③④口 |①---|
①口口口 |②---|
口口口口 |③---|
口口口口 |④---|
16
口口口口 |①---|
口①①口 |----|
口②②口 |②---|
口口口口 |----|
17
口口口口 |①---|
口口口口 |----|
口口口口 |----|
口①①口 |----|
18
③口口① |①---|
口④②口 |②---|
口口口口 |③---|
口口口口 |④---|
19
口口口口 |①---|
口口口口 |②---|
口④②口 |③---|
③口口① |④---|
20
口③①口 |①---|
口口口口 |②---|
④口口② |③---|
口口口口 |④---|
21
口口口口 |①---|
口口口口 |----|
口②②口 |②---|
口①①口 |----|
22
①口口③ |①---|
口②④口 |②---|
口口口口 |③---|
口口口口 |④---|
23
口口口口 |①---|
口口口口 |②---|
口②④口 |③---|
①口口③ |④---|
24
口口口口 |----|
口口口口 |----|
口口口口 |----|
口口口口 |----|
25
口口口口 |①---|
口①①口 |----|
口①①口 |----|
口口口口 |----|
26
①口口① |①---|
②口口② |----|
口口口口 |②---|
口口口口 |----|
27
口口③口 |①---|
口口③口 |②---|
口②①口 |③---|
口②①口 |----|
28
①②④③ |①---|
口口口口 |②---|
口口口口 |③---|
口口口口 |④---|
29
口口口口 |①---|
口①①口 |----|
口②②口 |②---|
口口口口 |----|
30
口③①口 |①---|
④口口② |②---|
口口口口 |③---|
口口口口 |④---|
31
口口口口 |①---|
口口口口 |②---|
④口口② |③---|
口③①口 |④---|
32
口口口口 |----|
口口口口 |----|
口口口口 |----|
口口口口 |----|
33
口口口口 |①---|
口①①口 |----|
口①①口 |----|
口口口口 |----|
34
口②口① |①---|
口②口① |②---|
④口③口 |③---|
④口③口 |④---|
35
口口口口 |①---|
口②口② |----|
口口口口 |②---|
口①口① |----|
36
①口②口 |①---|
①口②口 |②---|
口③口④ |③---|
口③口④ |④---|
37
口口口口 |①---|
②口②口 |----|
口口口口 |②---|
①口①口 |----|
38
口②口① |①---|
口②口① |②---|
④口③口 |③---|
④口③口 |④---|
39
口④③口 |①---|
口②口② |----|
口口口口 |②---|
口①口① |③-④-|
40
口口口口 |----|
口口口口 |----|
口口口口 |----|
口口口口 |----|
41
口口口口 |①---|
口①①口 |----|
口①①口 |----|
口口口口 |----|
42
口②口① |①---|
口②口① |②---|
口口④④ |③---|
口口③③ |④---|
43
口口口口 |①---|
口口①② |----|
②①口口 |②---|
口口口口 |----|
44
①口②口 |①---|
①口②口 |②---|
④④口口 |③---|
③③口口 |④---|
45
口口口口 |①---|
②①口口 |----|
口口①② |②---|
口口口口 |----|
46
口②口① |①---|
口②口① |②---|
口口④④ |③---|
口口③③ |④---|
47
①口②口 |①---|
①口②口 |②---|
④④口口 |③---|
③③口口 |④---|
48
口①口① |①---|
口口口② |--②-|
④口②③ |--③-|
口④③口 |--④-|
49
口口口口 |----|
口②①口 |----|
口口口口 |①---|
口口口口 |②---|
50
口口口① |①---|
口口③口 |--②-|
口②口口 |----|
口口口口 |③---|
51
口口口口 |----|
口口口口 |①---|
口口①口 |②---|
口②③口 |③---|
52
①口口口 |①---|
口③口口 |--②-|
口口②口 |----|
口口口口 |③---|
53
口口口口 |----|
口口口口 |①---|
口①口口 |②---|
口③②口 |③---|
54
口口口① |①---|
口口③口 |--②-|
口②口口 |----|
口口口口 |③---|
55
口口口口 |----|
口口口口 |①---|
口口①口 |②---|
口②③口 |③---|
56
①口口口 |①---|
口③口口 |--②-|
口口②口 |----|
口口口口 |③---|
57
口口口口 |----|
口口口口 |①---|
口①口口 |②---|
口③②口 |③---|
58
①口口① |①---|
口口口口 |----|
口口口口 |----|
口口口口 |----|
59
口口①口 |①---|
口①②口 |--②-|
口②③口 |----|
口③口口 |③---|
60
①口口① |①---|
口口口口 |----|
口口口口 |----|
口口口口 |----|
61
口①口口 |①---|
口②①口 |--②-|
口③②口 |----|
口口③口 |③---|
62
①口口① |①---|
口口③口 |----|
口口④口 |②---|
②口口口 |③-④-|
63
口口口口 |①---|
口③口口 |----|
口④口口 |②---|
口口①② |③-④-|
64
口口口④ |①---|
③口口口 |②---|
口口口② |③---|
口①口口 |④---|
65
口口口口 |①---|
口①①口 |----|
口口口口 |----|
口口口口 |----|
66
口②①口 |①---|
口口口口 |--②-|
②口口① |----|
口③③口 |③---|
67
口口口口 |----|
②口口① |①---|
口②①口 |②---|
③口口③ |③---|
68
②口口① |①---|
口口口口 |--②-|
②口口① |----|
口③③口 |③---|
69
口口口口 |----|
②②①① |①---|
口口口口 |②---|
③口口③ |③---|
70
②口口① |①---|
口口口口 |--②-|
口②①口 |----|
口③③口 |③---|
71
口口口口 |----|
口②①口 |①---|
②口口① |②---|
③口口③ |③---|
72
口②①口 |①---|
口口口口 |--②-|
口②①口 |----|
口③③口 |③---|
73
①口口① |①---|
口口口口 |----|
口口口口 |----|
口口口口 |----|
74
口④①口 |①---|
口②③口 |②---|
④口口① |③---|
口口口口 |④---|
75
口口口口 |①---|
④口口③ |②---|
口④③口 |③---|
②②①① |④---|
76
④口口① |①---|
口②③口 |②---|
④口口① |③---|
口口口口 |④---|
77
口④③口 |①---|
④口口③ |②---|
口口口口 |③---|
②②①① |④---|
78
④口口① |①---|
口②③口 |②---|
口④①口 |③---|
口口口口 |④---|
79
口口口口 |①---|
⑥口口⑤ |②---|
④口口③ |③-④-|
②②①① |⑤-⑥-|
80
口①①口 |①---|
口口口口 |----|
口口口口 |----|
口口口口 |----|
81
口口口口 |①---|
口①①口 |----|
口口口口 |----|
口口口口 |----|
82
①①①① |①---|
口口口④ |----|
口③②口 |②-③-|
口口口口 |--④-|
83
口②①口 |----|
口④③口 |----|
口口口口 |①-②-|
口口口口 |③-④-|
84
口口口① |①---|
口口口④ |----|
口③②口 |②-③-|
口口口口 |--④-|
85
口②①口 |----|
口口口口 |----|
口口口口 |①---|
口口口口 |②---|
86
①口口口 |①---|
④口口口 |----|
口②③口 |②-③-|
口口口口 |--④-|
87
口①②口 |----|
口③④口 |----|
口口口口 |①-②-|
口口口口 |③-④-|
88
①口口口 |①---|
④口口口 |----|
口②③口 |②-③-|
口口口口 |--④-|
89
口口①② |----|
口口口口 |----|
口口口口 |①---|
口口口口 |②---|
90
②①口口 |①---|
口口口口 |②---|
口⑥⑤口 |③-④-|
口④③口 |⑤-⑥-|
91
④④①① |①---|
口②③口 |②-③-|
口口口口 |④---|
⑤⑤口口 |⑤---|
92
口口口口 |①---|
⑤口口④ |②-③-|
③⑦⑥② |④-⑤-|
口口①① |⑥-⑦-|
93
口口①① |①---|
口②③口 |②-③-|
④口⑥口 |④-⑤-|
口口⑤⑤ |--⑥-|
94
②①口口 |①---|
⑥口口⑤ |②---|
④口口③ |③-④-|
口口口口 |⑤-⑥-|
95
⑥⑥①① |①---|
口②③口 |②-③-|
口口⑤口 |④---|
④④口口 |⑤-⑥-|
96
口口③口 |--①-|
口④⑤口 |②-③-|
②⑥⑦① |④-⑤-|
口口口口 |⑥-⑦-|
97
口口口口 |①---|
口口口口 |----|
口口口口 |----|
①①口口 |----|
98
①口口① |①---|
口⑥⑤口 |②---|
口④③口 |③-④-|
②口口② |⑤-⑥-|
99
口④①口 |①---|
④口口① |②-③-|
②口口③ |④---|
⑤口口⑤ |⑤---|
100
①口②① |①---|
口③口口 |②-③-|
口⑦④口 |④-⑤-|
口⑤⑥口 |⑥-⑦-|
101
④②口口 |①---|
④口③① |②-③-|
⑤口口① |④---|
⑤口口口 |⑤---|
102
口口①① |①---|
口口⑥口 |②---|
口⑤④口 |③-④-|
口③②② |⑤-⑥-|
103
①①②④ |①---|
口③口④ |②-③-|
⑤口口⑥ |④---|
⑤口口⑥ |⑤-⑥-|
104
口①口口 |--①-|
口⑦②口 |②-③-|
口⑤⑥口 |④-⑤-|
口③④口 |⑥-⑦-|
105
②口①② |①---|
口口口① |----|
口口口口 |②---|
③口口③ |③---|
106
口口口口 |①---|
⑥①②⑤ |②---|
④口口③ |③-④-|
口①②口 |⑤-⑥-|
107
④④①① |①---|
口口口口 |②-③-|
口②③口 |④---|
⑤⑤口口 |⑤---|
108
口口口口 |①---|
口④③① |②-③-|
②⑥⑦⑤ |④-⑤-|
口口口① |⑥-⑦-|
109
①①⑤⑤ |①---|
口口口口 |②-③-|
口⑥口口 |④-⑤-|
②④③口 |--⑥-|
110
口口口口 |①---|
②⑥⑤① |②---|
②口口① |③-④-|
④口口③ |⑤-⑥-|
111
④④①① |①---|
⑥口口口 |②-③-|
⑥口⑤口 |④---|
口②③口 |⑤-⑥-|
112
⑥口①⑦ |--①-|
口②③口 |②-③-|
口口口口 |④-⑤-|
④口口⑤ |⑥-⑦-|
113
口口口口 |①---|
口口口口 |----|
口①①口 |----|
口口口口 |----|
114
④④⑦③ |①-②-|
⑧口⑤⑤ |③-④-|
②②口⑦ |⑤-⑥-|
⑥⑧①① |⑦-⑧-|
115
⑤⑤口④ |①-②-|
口⑦⑥⑥ |③-④-|
③③①口 |⑤-⑥-|
口口②② |⑦---|
116
⑦⑦②⑥ |①-②-|
②口⑧⑧ |③-④-|
⑤⑤③① |⑤-⑥-|
口①④④ |⑦-⑧-|
117
口口⑤口 |①-②-|
③①口口 |③-④-|
口口⑦② |⑤-⑥-|
④⑥口口 |⑦---|
118
④④⑦③ |①-②-|
⑧口⑤⑤ |③-④-|
②②口⑦ |⑤-⑥-|
⑥⑧①① |⑦-⑧-|
119
⑤⑤口④ |①-②-|
口⑦⑥⑥ |③-④-|
③③①口 |⑤-⑥-|
口口②② |⑦---|
120
⑦⑦②⑥ |①-②-|
②口⑧⑧ |③-④-|
⑤⑤③① |⑤-⑥-|
口①④④ |⑦-⑧-|
121
口口⑤口 |①-②-|
③①口口 |③-④-|
口口⑦④ |⑤-⑥-|
②⑥口口 |⑦---|
122
①口口⑥ |①-②-|
⑤⑦口② |③-④-|
口③口⑧ |⑤-⑥-|
口口口④ |⑦-⑧-|
123
③口⑥口 |①-②-|
口口④口 |③-④-|
⑤口②口 |⑤-⑥-|
①⑦⑦口 |⑦---|
124
口⑦口② |①-②-|
①⑤⑧口 |③-④-|
口③口⑥ |⑤-⑥-|
口口口④ |⑦-⑧-|
125
⑤口口口 |①-②-|
③口口④ |③-④-|
⑦口②⑦ |⑤-⑥-|
①口⑥口 |⑦---|
126
口口口口 |①-②-|
口①④⑥ |③-④-|
口⑤⑧口 |⑤-⑥-|
③⑦口② |⑦-⑧-|
127
①①①① |①---|
口口口口 |----|
口口口口 |----|
口②②口 |--②-|
128
②口口① |--①-|
口口⑦口 |②-③-|
口⑥⑤口 |④-⑤-|
④口口③ |⑥-⑦-|
129
口①①口 |①---|
口口口口 |----|
口口口口 |----|
口口口口 |----|
130
口口口口 |①---|
①口口① |----|
①口口① |----|
口口口口 |----|

不確定度: 0

最終更新:2014年11月06日 17:37