御千手メディテーション
昇天家族

ADVANCED

Level: 9
BPM: 150-190
Notes: 710

BPM: 150
1
口口口口 |----|
口口口口 |----|
口口口口 |----|
口口口口 |----|
2
口口口③ |①---|
口①①口 |----|
口②②口 |②---|
口口口口 |--③-|
3
口口口口 |①---|
口②②口 |----|
口口口口 |②---|
①口口③ |--③-|
4
①口口② |①---|
口口口口 |--②-|
口口口口
口口口口

④口口口
口口口口
口口口口 |③---|
③口口口 |--④-|
5
口口②口 |①---|
口⑤口口 |----|
口口④口 |②-③-|
口③口① |④-⑤-|
6
②②口口 |①---|
口③①① |----|
口口口口 |②---|
口口口口 |--③-|
7
口口口口 |①---|
③口口③ |----|
②口①② |②---|
口口口口 |③---|
8
口口口口 |①---|
口③③口 |②---|
口②②口 |③---|
④①①④ |④---|
9
①④③① |①-②-|
口⑥⑤口 |③-④-|
⑧②口⑦ |⑤-⑥-|
口口口口 |⑦-⑧-|
10
口口口口 |①---|
口口口口 |----|
口口口口 |----|
口①①口
11
①②③口 |----|
口④⑤⑥ |①-②-③-|
口口口口 |④-⑤-⑥-|
口口口口

BPM: 190
12
口口口口 |①---|
口口口口 |----|
口①①口 |----|
口口口口
13
口口口口 |----|
口口口口 |----|
口口口口 |----|
口口口口
14
口口口口 |①---|
口口口口 |----|
口口口口 |----|
①口口①
15
口口口口 |----|
口口口口 |----|
口口口口 |----|
口口口口
16
①口口① |①---|
口口口口 |----|
口口口口 |----|
口口口口
17
口口口口 |----|
口口口口 |----|
口口口口 |----|
口口口口
18
口口口口 |①---|
口口口口 |----|
口①①口 |----|
口口口口
19
口口口口 |----|
口口口口 |----|
口口口口 |----|
口口口口
20
①②③口 |①-②-③-|
口⑥⑤④ |④-⑤-⑥-|
口⑫⑪⑩ |⑦-⑧-⑨-|
⑦⑧⑨口 |⑩-⑪-⑫-|
21
口③②① |①-②-③-|
④⑤⑥口 |④-⑤-⑥-|
⑩⑪⑫口 |⑦-⑧-⑨-|
口⑨⑧⑦ |⑩-⑪-⑫-|
22
①②③口 |①-②-③-|
口⑥⑤④ |④-⑤-⑥-|
口⑫⑪⑩ |⑦-⑧-⑨-|
⑦⑧⑨口 |⑩-⑪-⑫-|
23
口③②① |①-②-③-|
④⑤⑥口 |④-⑤-⑥-|
⑩⑪⑫口 |⑦-⑧-⑨-|
口⑨⑧⑦ |⑩-⑪-⑫-|
24
①①口③ |①---|
②口④口 |②---|
口口口⑤ |③-④-⑤-|
②口⑥口 |⑥---|
25
①①口③ |①---|
②口④口 |②---|
口口口⑤ |③-④-⑤-|
②口⑥口 |⑥---|
26
①口⑤口 |①-②-③-|
口②口⑥ |④---|
③口⑦口 |⑤-⑥-⑦-|
口④口⑧ |⑧---|
27
⑦①⑩④ |①-②-③-|
⑤⑪②⑧ |④-⑤-⑥-|
⑨③⑫⑥ |⑦-⑧-⑨-|
口口口口 |⑩-⑪-⑫-|
28
口①口口 |①---|
口口口口 |②---|
口口口口 |③---|
②③④口 |④---|
29
③口①口 |①---|
口口口口 |②---|
口④口② |③---|
口口口口 |④---|
30
口③②① |①-②-③-|
口⑥⑤④ |④-⑤-⑥-|
口⑨⑧⑦ |⑦-⑧-⑨-|
口⑫⑪⑩ |⑩-⑪-⑫-|
31
口口①① |①---|
口口口口 |----|
口口口口 |----|
口口口口 |----|
32
口口⑤① |①-②-|
口④⑧⑤ |③-④-|
口⑦③口 |⑤-⑥-|
口②⑥口 |⑦-⑧-|
33
口①⑤口 |①-②-|
①⑧口⑤ |③-④-|
④口⑦口 |⑤-⑥-|
②⑥口③ |⑦-⑧-|
34
⑤①⑤① |①-②-|
⑧口④口 |③-④-|
口③⑦口 |⑤-⑥-|
⑥口②口 |⑦-⑧-|
35
④①口① |①--②|
口②⑤② |--③-|
⑥③口③ |④-⑤-|
口口口⑦ |⑥-⑦-|
36
口口⑤① |①-②-|
口④⑧⑤ |③-④-|
口⑦③口 |⑤-⑥-|
口②⑥口 |⑦-⑧-|
37
口①⑤口 |①-②-|
①⑧口⑤ |③-④-|
④口⑦口 |⑤-⑥-|
②⑥口③ |⑦-⑧-|
38
口④口① |①-②-|
⑧口⑤口 |③-④-|
口③口② |⑤-⑥-|
⑥口口⑦ |⑦-⑧-|
39
③③①① |①-②-|
⑧口口⑤ |③-④-|
⑥④②⑨ |⑤-⑥-⑦-|
⑩口口⑦ |⑧-⑨-⑩-|
40
口口⑤① |①-②-|
口④⑧⑤ |③-④-|
口⑦③口 |⑤-⑥-|
口②⑥口 |⑦-⑧-|
41
口①⑤口 |①-②-|
①⑧口⑤ |③-④-|
④口⑦口 |⑤-⑥-|
②⑥口③ |⑦-⑧-|
42
⑤①⑤① |①-②-|
⑧口④口 |③-④-|
口③⑦口 |⑤-⑥-|
⑥口②口 |⑦-⑧-|
43
④①口① |①--②|
口②⑤② |--③-|
⑥③口③ |④-⑤-|
口口口⑦ |⑥-⑦-|
44
口口⑤① |①-②-|
口④⑧⑤ |③-④-|
口⑦③口 |⑤-⑥-|
口②⑥口 |⑦-⑧-|
45
口①⑤口 |①-②-|
①⑧口⑤ |③-④-|
④口⑦口 |⑤-⑥-|
②⑥口③ |⑦-⑧-|
46
②口口① |①---|
口口①口 |②---|
④口口③ |③---|
口口③口 |④---|
47
⑥②口③ |①-②-|
口口③① |③-④-|
口④①⑤ |⑤---|
口口⑤口 |⑥---|
48
口口口口 |①-②-|
口⑤⑥口 |③-④-|
口③④口 |⑤-⑥-|
①口口②
49
①口口② |①-②-|
口口口口 |③-④-|
⑤口口⑥ |⑤-⑥-|
口③④口
50
口③④口 |①-②-|
①口口② |③-④-|
口口口口 |⑤-⑥-|
⑤口⑥口
51
口⑤口⑥ |①-②-|
③口④口 |③-④-|
口①口② |⑤-⑥-|
口口口口
52
口口口口 |①-②-|
口⑤口⑥ |③-④-|
③口④口 |⑤-⑥-|
口①口②
53
①口②口 |①-②-|
口口口口 |③-④-|
⑤⑥口口 |⑤-⑥-|
③④口口
54
③④口口 |①-②-|
①②口口 |③-④-|
口口口口 |⑤-⑥-|
口口⑤⑥
55
口口⑤⑥ |①-②-|
口口③④ |③-④-|
口口①② |⑤-⑥-|
口口口口
56
⑤⑤口口 |①-②-|
口口口口 |③-④-|
口③④口 |⑤---|
口①②口
57
口口口口 |----|
口口口口 |----|
口口口口 |①---|
口口口①
58
口⑦②② |①-②-|
⑤口④④ |③-④-|
口③⑥⑥ |⑤-⑥-|
①口⑧⑧ |⑦-⑧-|
59
⑦口②② |①-②-|
口⑤④④ |③-④-|
③口⑥⑥ |⑤-⑥-|
口①⑧⑧ |⑦-⑧-|
60
口⑦②② |①-②-|
⑤口④④ |③-④-|
口③⑥⑥ |⑤-⑥-|
①口⑧⑧ |⑦-⑧-|
61
①口③口 |①---|
口①③口 |②---|
④②⑤口 |③-④-|
④②⑤口 |⑤---|
62
②②口⑦ |①-②-|
④④口⑤ |③-④-|
⑥⑥口③ |⑤-⑥-|
⑧⑧口① |⑦-⑧-|
63
②②⑦口 |①-②-|
④④⑤口 |③-④-|
⑥⑥③口 |⑤-⑥-|
⑧⑧①口 |⑦-⑧-|
64
②②口⑦ |①-②-|
④④口⑤ |③-④-|
⑥⑥口③ |⑤-⑥-|
⑧⑧口① |⑦-⑧-|
65
③②⑥⑥ |①-②-|
③口②口 |③-④-|
⑤⑤④口 |⑤---|
口口④① |⑥---|
66
口口口⑨ |①---|
⑧①①口 |②-③-④-|
口⑤⑥⑦ |⑤-⑥-⑦-|
②③④口 |⑧---⑨-|
67
口口口口 |----①-|
口口⑧⑦ |②-③-④-|
⑥⑤④口 |⑤-⑥-⑦-|
口③②① |⑧---|
68
①口口⑨ |①---|
⑧口口口 |②-③-④-|
口⑤⑥⑦ |⑤-⑥-⑦-|
②③④口 |⑧---⑨-|
69
口口口口 |----①-|
口口⑧⑦ |②-③-④-|
⑥⑤④口 |⑤-⑥-⑦-|
口③②① |⑧---|
70
口⑫⑪⑩ |①-②-③-|
口⑨⑧⑦ |④-⑤-⑥-|
口⑥⑤④ |⑦-⑧-⑨-|
口③②① |⑩-⑪-⑫-|
71
口⑩⑪⑫ |①-②-③-|
口⑦⑧⑨ |④-⑤-⑥-|
口④⑤⑥ |⑦-⑧-⑨-|
口①②③ |⑩-⑪-⑫-|
72
口⑩⑪⑫ |①-②-③-|
⑦⑧⑨口 |④-⑤-⑥-|
口④⑤⑥ |⑦-⑧-⑨-|
①②③口 |⑩-⑪-⑫-|
73
①口口口 |①---|
口口口口 |----|
口口口口 |----|
口口口② |②---|
74
口①口口 |①---|
口口口口 |②---|
口口口口 |③---|
②③④口 |④---|
75
③口①口 |①---|
口口口口 |②---|
口④口② |③---|
口口口口 |④---|
76
口口口口 |①---|
口①①口 |----|
口口口口 |----|
口口口口 |----|
77
口口口口 |①---|
①口口① |----|
①口口① |----|
口①①口 |----|
78
口口②② |①-②-|
口⑤④④ |③-④-|
③口⑤口 |⑤---|
①口口口 |----|
79
口口①① |①---|
口②口口 |----|
口口口口 |②---|
①①口口 |----|
80
口口口口 |①---|
口口口口 |----|
口口①口 |----|
口口口口 |----|
81
⑤①口口 |①-②-|
①⑤②口 |③-④-|
口③⑥⑧ |⑤-⑥-|
口⑦④口 |⑦-⑧-|
82
⑦①口② |①--②|
①口②口 |--③-|
⑤③口⑥ |④-⑤-|
③口口④ |⑥-⑦-|
83
口④①⑤ |①-②-|
④②口① |③-④-|
口口③⑦ |⑤-⑥-|
⑧⑥口口 |⑦-⑧-|
84
⑧口①口 |①-②-|
口⑥⑦① |③-④-|
④②口口 |⑤-⑥-|
口口③⑤ |⑦-⑧-|
85
口口口① |①---|
口口口① |----|
口口口口 |----|
口口口口 |----|
86
④口口④ |①---|
③口口③ |②---|
口②②口 |③---|
①口口① |④---|
87
口⑦④口 |①-②-|
口③⑥⑧ |③-④-|
①⑤②口 |⑤-⑥-|
⑤①口口 |⑦-⑧-|
88
⑦口口④ |①-②-|
口③口⑧ |③-④-|
①⑤⑥② |⑤-⑥-|
⑤①口口 |⑦-⑧-|
89
⑥⑦⑧口 |①-②-|
④③②口 |③-④-|
①口口⑤ |⑤-⑥-|
口①⑤口 |⑦-⑧-|
90
⑤口口④ |①--②|
③③⑥② |--③-|
①⑦②口 |④-⑤-|
口①口口 |⑥-⑦-|
91
⑧④口口 |①-②-|
口⑥⑦③ |③-④-|
②口⑤① |⑤-⑥-|
⑤①①⑤ |⑦-⑧-|
92
⑧④⑦口 |①-②-|
口⑥口③ |③-④-|
口②⑤① |⑤-⑥-|
⑤①①⑤ |⑦-⑧-|
93
口③口① |①--②|
④⑤②口 |--③-|
口③⑤① |-④--|
④口②口 |⑤---|
94
①④⑦① |①--②|
口⑧⑤口 |--③-|
②⑥⑨② |④-⑤-⑥-|
口③③口 |⑦-⑧-⑨-|
95
①口口① |--①-|
①口口① |----|
①口口① |----|
口口口口 |----|

不確定度: 0

最終更新:2014年12月11日 23:35