Got more raves?
E.G.G.「グルーヴコースター」より

EXTREME

Level: 10
BPM: 266
Notes: 899

1
口口口口 |----|
口口口口 |----|
口口口口 |----|
口口口口
2
口口口口 |----|
口口口口 |----|
口口口口 |----|
口口口口
3
口口口口 |①---|
口口口口 |----|
口口口口 |----|
口口口①
4
口口口口 |----|
口口口口 |----|
口口口口 |----|
口口口口
5
口口口口 |①---|
口口口口 |----|
口口①① |----|
口口口口
6
口口口口 |----|
口口口口 |----|
口口口口 |----|
口口口口
7
口口口口 |①---|
口①①① |----|
口口口口 |----|
口口口口
8
口口口口 |----|
口口口口 |----|
口口口口 |----|
口口口口
9
①①①① |①---|
口口口口 |----|
口口口口 |----|
口口口口
10
口口口口 |----|
口口口口 |----|
口口口口 |----|
口口口口
11
口口口口 |①---|
①口口① |----|
口①①口 |----|
①口口①
12
口口口口 |----|
口口口口 |----|
口口口口 |----|
口口口口
13
②口口① |①-②-|
口口口⑤ |③-④-|
④口口③ |⑤---|
口⑥⑥口 |⑥---|
14
口②①口 |①-②-|
口⑥⑤口 |③-④-|
口④③口 |⑤-⑥-|
⑧口口⑦ |⑦-⑧-|
15
④③②① |----|
口口口口 |①-②-|
口口口口 |③-④-|
口口口口
16
口口口口 |①---|
口口口① |②-③-|
②③④⑤ |④-⑤-|
⑥口口口 |⑥---|
17
口口④口 |①---|
②口⑤② |②---|
③口⑥口 |③---|
口①⑦① |④⑤⑥⑦|
18
口①口⑤ |①②③④|
⑥②口⑥ |⑤---|
口③口口 |⑥---|
⑦④口⑦ |⑦---|
19
口④③口 |①-②-|
口⑤②口 |③-④-|
口口口① |⑤---|
口口口口
20
口口口口 |①-②-|
口口口⑥ |③-④-|
①④⑤口 |⑤-⑥-|
③②口口
21
⑤口口② |--①-|
口④③口 |②-③-|
口口口① |④-⑤-|
口口口口
22
口口口口 |①---|
⑤口口口 |②-③-|
①④口口 |④-⑤-|
口口③②
23
口口③② |--①-|
口口①④ |②-③-|
口口口口 |④---|
口口口口
24
⑤口口口 |①---|
口④口口 |②-③-|
口口③② |④-⑤-|
①口口口
25
口口口口 |--①-|
口口口口 |②-③-|
⑤④口口 |④-⑤-|
口③②①
26
口⑤口口 |①---|
④③②口 |②-③-|
口口口口 |④-⑤-|
①口口口
27
口口口口 |①-②-|
口口口口 |③-④-|
④⑤⑥口 |⑤-⑥-|
口③②①
28
口口④③ |①-②-|
口口①② |③-④-|
口口口口 |--⑤-|
⑤口口口
29
口口口口 |①-②-|
口⑥口口 |③-④-|
口⑤④③ |⑤-⑥-|
口①②口
30
②口口口 |①-②-|
①口口口 |--③-|
③口口口 |④-⑤-|
④⑤口口
31
⑥口口口 |①-②-|
⑤④口口 |③-④-|
口口③② |⑤-⑥-|
口口①口
32
口①口口 |①---|
口口口口 |②-③-|
②⑤口口 |④-⑤-|
④③口口
33
口口④② |①-②-|
口⑤①③ |③-④-|
口口口口 |⑤---|
口口口口
34
口口口口 |①-②-|
口口口口 |③-④-|
④⑤⑥口 |⑤-⑥-|
口③②①
35
口口④③ |①-②-|
口口①② |③-④-|
口口口口 |--⑤-|
⑤口口口
36
口口口口 |①-②-|
口⑥口口 |③-④-|
口⑤④③ |⑤-⑥-|
口①②口
37
②口口口 |①-②-|
①口口口 |--③-|
③口口口 |④-⑤-|
④⑤口口
38
⑥口口口 |①-②-|
⑤④口口 |③-④-|
口口③② |⑤-⑥-|
口口①口
39
口①口口 |①---|
口口口口 |②-③-|
②⑤口口 |④-⑤-|
④③口口
40
口口④② |①-②-|
口⑤①③ |③-④-|
口口口口 |⑤---|
口口口口
41
口口口口 |①-②-|
口口口口 |③-④-|
④⑤⑥口 |⑤-⑥-|
口③②①
42
口口④③ |①-②-|
口口①② |③-④-|
口口口口 |--⑤-|
⑤口口口
43
口口口口 |①-②-|
口⑥口口 |③-④-|
口⑤④③ |⑤-⑥-|
口①②口
44
②口口口 |①-②-|
①口口口 |--③-|
③口口口 |④-⑤-|
④⑤口口
45
⑥口口口 |①-②-|
⑤④口口 |③-④-|
口口③② |⑤-⑥-|
口口①口
46
口①口口 |①---|
口口口口 |②-③-|
②⑤口口 |④-⑤-|
④③口口
47
口口④② |①-②-|
口⑤①③ |③-④-|
口口口口 |⑤---|
口口口口
48
④口口④ |①-②-|
口口口口 |--③-|
口③③口 |----|
口口②① |④---|
49
口②口口 |①---|
口口口口 |--②-|
①口口① |----|
口口口口
50
口口口口 |----|
口口口口 |----|
口口口口 |----|
口口口口 |----|
51
口口口口 |----|
口口口口 |----|
口口口口 |----|
口口口口
52
口口②① |----|
口口口③ |----|
口口口口 |--①-|
口口口口 |②-③-|
53
①②口口 |①-②-|
③口④口 |③-④-|
口口⑥⑤ |⑤-⑥-|
口口口口
54
口口口⑧ |①-②-|
口①口口 |③-④-|
②③口口 |⑤-⑥-|
⑦⑥⑤④ |⑦-⑧-|
55
①口口口 |①-②-|
口口口② |----|
口口口口 |----|
口口口口
56
口口口⑤ |----|
口口④口 |①-②-|
口口口③ |③-④-|
①②口口 |⑤---|
57
口口⑤口 |①-②-|
口口口④ |③-④-|
①②③口 |⑤---|
口口口口
58
⑥⑦口⑤ |①-②-|
①②④口 |③-④-|
口口口③ |⑤---|
口口口口 |⑥-⑦-|
59
口口③口 |①-②-|
④口口② |③---|
口口①⑤ |④-⑤-⑥-|
⑥口口口
60
⑥⑩口⑤ |①-②-③-|
口②①⑨ |④-⑤-⑥-|
⑧④⑪口 |⑦-⑧-⑨-|
口⑫⑦③ |⑩-⑪-⑫-|
61
口口①口 |①-②-③-|
②⑥⑤口 |④-⑤-⑥-|
口口口③ |----|
④口口口
62
口⑤口① |----|
口⑥口② |①-②-|
口口③口 |③-④-|
口口④口 |⑤-⑥-|
63
④口口口 |①-②-|
口口③口 |③---|
①口口口 |④---|
②口口④
64
口口①口 |①---|
口口口口 |----|
口口口口 |----|
口①口口
65
口口口① |①-②-|
口②③口 |③-④-|
④口口⑤ |⑤---|
口口口口
66
口①②口 |①---|
①口口② |--②-|
口②①口 |----|
口①②口
67
②口口② |①---|
口口口口 |②---|
口口口口
①口口①
68
口口口口 |①---|
②①①口 |--②-|
口口口③ |--③-|
口口口口
69
口口口口 |--①-|
口口口口 |②---|
①口口口
②口口口
70
口②①口 |①---|
②口口① |--②-|
口①②口 |----|
口②①口
71
②口口② |①---|
口①口口 |②---|
口口口口
口口口①
72
口口①口 |①---|
口口④① |--②-|
口①口③ |③-④-|
①口②口
73
③口口口 |①-②-|
口①口口 |③-④-|
②口口口
口口口④
74
口①②口 |①---|
①口口② |--②-|
口②①口 |----|
口①②口
75
②口口② |①---|
口口口口 |②---|
口口口①
①口口口
76
口①②口 |①---|
①口④③ |--②-|
口口①口 |③-④-|
口口口①
77
口口口口 |①-②-|
口①口口 |③---|
②③口口
口口口口
78
②③③口 |①-②-|
②口口④ |--③-|
口口口① |--④-|
口口口①
79
口口口③ |①---|
口口口口 |②-③-|
口②口口 |----|
①口口口
80
②②③口 |①-②-|
口口口③ |--③-|
口口①口 |----|
口口口①
81
口口口⑤ |①-②-|
口③④口 |③-④-|
②口口⑥ |⑤-⑥-|
①口口口
82
口①②口 |①---|
①口口② |--②-|
口②①口 |----|
口①②口
83
②口口② |①---|
口口口口 |②---|
口口口口
①口口①
84
口口口口 |①---|
②①①口 |--②-|
口口口③ |--③-|
口口口口
85
口口口口 |--①-|
口口口口 |②---|
①口口口
②口口口
86
口②①口 |①---|
②口口① |--②-|
口①②口 |----|
口②①口
87
②口口② |①---|
口①口口 |②---|
口口口口
口口口①
88
口口①口 |①---|
口口④① |--②-|
口①口③ |③-④-|
①口②口
89
③口口口 |①-②-|
口①口口 |③-④-|
②口口口
口口口④
90
口①②口 |①---|
①口口② |--②-|
口②①口 |----|
口①②口
91
②口口② |①---|
口①口口 |②---|
口口口①
口口口口
92
口①②口 |①---|
①口口② |--②-|
口②①口 |----|
②口口①
93
口口口口 |①---|
口①②口 |②---|
①口口②
口①②口
94
③①口③ |①-②-|
①口口④ |--③-|
口口②口 |----|
④口口② |④---|
95
口④口③ |①---|
②①②口 |②---|
口②口② |----|
口口①口 |③-④-|
96
口口口口 |①-②-|
口④④③ |③---|
②口①口 |④---|
口口口口
97
口④②② |①---|
口口口口 |②-③-|
口③④口 |--④-|
③①①口 |----|
98
口口口口 |①---|
口③②口 |②---|
①口口① |③---|
④②③④ |④---|
99
①口②口 |①-②-|
⑤⑥⑥口 |③-④-|
口③口④ |⑤---|
口口口口 |⑥---|
100
口口口⑤ |--①-|
④口口① |②---|
②③③④ |③---|
⑤②口① |④-⑤-|
101
口①①口 |--①-|
口②②口 |--②-|
③口④口 |----|
口口口口 |③-④-|
102
④口口④ |①-②-|
③口口口 |③---|
口口口口 |④---|
口①口②
103
口口③口 |----|
口①②③ |--①-|
③②①口 |②---|
口③口口 |③---|
104
⑤③口① |①-②-|
②④口口 |--③-|
口⑤④② |--④-|
①口③口 |--⑤-|
105
口⑥⑥口 |①-②-|
④口①③ |③-④-|
②口口⑤ |⑤---|
口口口① |⑥---|
106
口口口口 |①---|
口口口口 |----|
口口口口 |----|
①口口口
107
口口口口 |----|
口口口口 |----|
口口口口
口口口口
108
口口口口 |①---|
口口口口 |----|
①①口口 |----|
口口口口
109
口口口口 |----|
口口口口 |----|
口口口口
口口口口
110
口口口口 |①---|
①①①口 |----|
口口口口 |----|
口口口口
111
口口口口 |----|
口口口口 |----|
口口口口
口口口口
112
①①①① |①---|
口口口口 |----|
口口口口 |----|
口口口口
113
口口口口 |----|
口口口口 |----|
口口口口
口口口口
114
口②③口 |①-②-|
①④⑤① |③-④-|
口①①口 |⑤---|
①口口①
115
①口口① |①---|
口口口口 |②---|
口口口口
口②②口
116
口④口口 |①-②-|
③口口③ |--③-|
口①②口 |--④-|
口口口口
117
②口①② |①---|
口口口口 |②---|
口口口口
口口口口
118
口口口口 |①-②-|
口①②口 |③-④-|
口③④口 |⑤---|
口⑤口口
119
口口口口 |①---|
①口口① |②---|
口口口口
②口口②
120
③口口③ |①-②-|
口①②口 |--③-|
④口口口 |--④-|
口口口口
121
口口口口 |①---|
口口口口 |②---|
口口口①
口②②口
122
口口口④ |①-②-|
口口③口 |③-④-|
口②⑥口 |⑤-⑥-|
①口口⑤
123
②③④口 |①-②-|
⑤①口口 |③-④-|
口口口口 |--⑤-|
口口口口
124
口口口⑥ |①-②-|
口口口⑤ |③-④-|
口①④口 |⑤-⑥-|
口③②口
125
口②口口 |①-②-|
口口①口 |--③-|
口④口口 |④-⑤-|
③口⑤口
126
⑤⑥口口 |①-②-|
口④口口 |③-④-|
口口③① |⑤-⑥-|
口口口②
127
口口①⑤ |①---|
口口④口 |②-③-|
口③口口 |④-⑤-|
②口口口
128
口口口口 |①-②-|
口口口① |③-④-|
口口②⑤ |⑤---|
口③④口
129
口口口④ |①-②-|
口口③口 |③-④-|
口②⑥口 |⑤-⑥-|
①口口⑤
130
②③④口 |①-②-|
⑤①口口 |③-④-|
口口口口 |--⑤-|
口口口口
131
口口口⑥ |①-②-|
口口口⑤ |③-④-|
口①④口 |⑤-⑥-|
口③②口
132
口②口口 |①-②-|
口口①口 |--③-|
口④口口 |④-⑤-|
③口⑤口
133
⑤⑥口口 |①-②-|
口④口口 |③-④-|
口口③① |⑤-⑥-|
口口口②
134
口口①⑤ |①---|
口口④口 |②-③-|
口③口口 |④-⑤-|
②口口口
135
口口口口 |①-②-|
口口口① |③-④-|
口口②⑤ |⑤---|
口③④口
136
口①①口 |①---|
口口口口 |----|
口口口口 |----|
口口口口
137
①口口② |①-②-|
口③④口 |③-④-|
口⑤口口 |⑤---|
口口口口
138
口口口口 |①---|
①口口② |--②-|
口口口口 |----|
口①②口
139
②口口② |①---|
口口口口 |②---|
口口口口
①口口①
140
口口口口 |①---|
②①①口 |--②-|
口口口③ |--③-|
口口口口
141
口口口口 |--①-|
口口口口 |②---|
①口口口
②口口口
142
口②①口 |①---|
口口口口 |--②-|
口①②口 |----|
口口口口
143
②口口② |①---|
口①口口 |②---|
口口口口
口口口①
144
口口口口 |①---|
口口④① |--②-|
口口口③ |③-④-|
①口②口
145
③口口口 |①-②-|
口①口口 |③-④-|
②口口口
口口口④
146
口口口口 |①---|
①口口② |--②-|
口口口口 |----|
口①②口
147
②口口② |①---|
口口口口 |②---|
口口口①
①口口口
148
口①②口 |①---|
口口④③ |--②-|
口口口口 |③-④-|
口口口①
149
口口口口 |①-②-|
口①口口 |③---|
②③口口
口口口口
150
②口③口 |①-②-|
口口口④ |--③-|
口口口口 |--④-|
口口口①
151
口口口③ |①---|
口口口口 |②-③-|
口②口口 |----|
①口口口
152
②②③口 |①-②-|
口口口③ |--③-|
口口①口 |----|
口口口①
153
口口口⑤ |①-②-|
口③④口 |③-④-|
②口口⑥ |⑤-⑥-|
①口口口
154
口①②口 |①---|
①口口② |--②-|
口②①口 |----|
口①②口
155
②口口② |①---|
口口口口 |②---|
口口口口
①口口①
156
口口口口 |①---|
②①①口 |--②-|
口口口③ |--③-|
口口口口
157
口口口口 |--①-|
口口口口 |②---|
①口口口
②口口口
158
口②①口 |①---|
②口口① |--②-|
口①②口 |----|
口②①口
159
②口口② |①---|
口①口口 |②---|
口口口口
口口口①
160
口口①口 |①---|
口口④① |--②-|
口①口③ |③-④-|
①口②口
161
③口口口 |①-②-|
口①口口 |③-④-|
②口口口
口口口④
162
口①②口 |①---|
①口口② |--②-|
口②①口 |----|
口①②口
163
②口口② |①---|
口①口口 |②---|
口口口①
口口口口
164
口①②口 |①---|
①口口② |--②-|
口②①口 |----|
②口口①
165
口口口口 |①---|
口①②口 |②---|
①口口②
口①②口
166
①口口② |----|
③口口④ |①-②-|
口⑤⑥口 |③-④-|
口口口口 |⑤-⑥-|
167
口口⑤口 |--①-|
口④③口 |②-③-|
口口口口 |④-⑤-|
②口口① |----|
168
①口口口 |①-②-|
口口口② |③-④-|
③口口口 |----|
口口口④ |----|
169
口口口口 |①-②-|
口口⑤⑥ |③-④-|
口口③④ |⑤-⑥-|
①②口口
170
③④①② |①-②-|
口口口口 |③-④-|
口⑤口口 |--⑤-|
口口口口
171
口口口口 |①-②-|
①②⑤⑥ |③-④-|
口口③④ |⑤-⑥-|
口口口口
172
口口①② |①-②-|
口口口口 |--③-|
口口口口 |④-⑤-|
④⑤③口
173
口口口口 |①-②-|
③④⑤⑥ |③-④-|
①②口口 |⑤-⑥-|
口口口口
174
口口①口 |①---|
口口口口 |②-③-|
口口④⑤ |④-⑤-|
口口②③
175
⑤口口口 |①-②-|
③④口口 |③-④-|
①②口口 |⑤---|
口口口口
176
口①②③ |①-②-|
口口口④ |③-④-|
口口口⑤ |⑤-⑥-|
口口口⑥
177
口口口口 |①-②-|
口口⑤口 |③-④-|
④口口口 |--⑤-|
③②①口
178
口④⑤⑥ |①-②-|
口③口口 |③-④-|
口②①口 |⑤-⑥-|
口口口口
179
口口口口 |①-②-|
③口口① |--③-|
口⑤口② |④-⑤-|
口口口④
180
口②口⑤ |①-②-|
口⑥①口 |③-④-|
口口口口 |⑤-⑥-|
④口③口
181
口口②口 |①---|
⑤口口口 |②-③-|
口口①④ |④-⑤-|
口③口口
182
④口口⑤ |①-②-|
口口①口 |③-④-|
口②口口 |⑤---|
口口口③

不確定度: 0

最終更新:2014年11月06日 17:34