きたさいたま2000
LindaAI-CUE(BNGI)「太鼓の達人」より

EXTREME

Level: 10
BPM: 222
Notes: 873

1
口口口口 |----|
口口口口 |----|
口口口口 |----|
口口口口 |----|
2
口口口① |①---|
口口口口 |----|
口口口口 |----|
口口口口 |----|
3
①口口口 |①---|
口口口口 |----|
口②②口 |②---|
口口口口 |----|
4
口口口口 |①---|
口口口口 |----|
口口口口 |----|
①口口口 |----|
5
口口口口 |①---|
口②②口 |----|
口口口口 |②---|
口口口① |----|
6
口口口① |①---|
口口口口 |----|
口口口口 |----|
口口口口 |----|
7
口口口口 |①---|
口口口口 |----|
口②②口 |②---|
①口口口 |----|
8
①口口口 |①---|
口口口口 |----|
口口口口 |----|
口口口口 |----|
9
口口口口 |①---|
口②②口 |----|
口口口口 |②---|
口口口① |----|
10
口口口① |①---|
②口口口 |----|
口口口口 |②---|
口口口口 |----|
11
口口口口 |①---|
口口口口 |----|
口②②口 |②---|
口口口① |----|
12
①口口口 |①---|
口口口口 |----|
口口口② |②---|
口口口口 |----|
13
口口口口 |①---|
口口口口 |----|
口②②口 |②---|
①口口口 |----|
14
口口口口 |①---|
口②①口 |②---|
口③④口 |③---|
口口口口 |④---|
15
口口口口 |①---|
口②①口 |②---|
口③④口 |③---|
口口口口 |④---|
16
⑤④③② |①-②-|
⑥口口① |③-④-|
⑦口口口 |⑤-⑥-|
⑧口口口 |⑦-⑧-|
17
⑫⑪⑩⑨ |①②③④|
⑬②①⑧ |⑤⑥⑦⑧|
⑭③口⑦ |⑨⑩⑪⑫|
⑮④⑤⑥ |⑬⑭⑮-|
18
口口口口 |①---|
④②①③ |----|
④②①③ |②-③-|
口口口口 |--④-|
19
②③④① |①-②③|
口口口口 |④-⑤⑥|
口口口口 |⑦---|
⑤⑥⑦口
20
⑥口口口 |①---|
口⑤①口 |②---|
口②④③ |③-④-|
口口口③ |⑤-⑥-|
21
⑧口口① |①-②-|
口⑦②① |③-④-|
④③⑥⑤ |⑤-⑥-|
口口口⑤ |⑦-⑧-|
22
口口口① |①-②-|
口口②① |③④⑤-|
⑥口口口 |⑥---|
③④⑤口
23
口②①口 |①-②-|
口口口⑥ |③④⑤-|
口⑤④③ |⑥---|
口口口口
24
口⑧⑦⑥ |①-②③|
②③④⑨ |④-⑤-|
⑤口口⑨ |⑥⑦⑧-|
口口口① |⑨---|
25
口口口口 |①-②-|
口⑦⑧口 |③-④-|
口①②口 |⑤-⑥-|
③⑤⑥④ |⑦-⑧-|
26
②⑥⑦③ |①②③④|
⑩⑭⑮⑬ |⑤⑥⑦⑧|
④⑧⑤① |⑨⑩⑪⑫|
⑫⑯⑪⑨ |⑬⑭⑮⑯|
27
口⑥④② |①-②-|
⑦口口口 |③-④-|
口⑤③① |⑤-⑥-|
⑧⑨口口 |⑦-⑧⑨|
28
口口口② |①-②-|
口⑤④口 |③-④-|
口⑤③① |⑤---|
口口口口
29
口口⑦⑤ |①-②③|
①口口口 |④-⑤-|
⑧⑨⑩⑥ |⑥-⑦-|
口④③② |⑧⑨⑩-|
30
②③⑨⑤ |①-②③|
①口④口 |④---|
口口口口 |⑤-⑥⑦|
口⑧⑦⑥ |⑧-⑨-|
31
②④口⑥ |①-②-|
口口⑦口 |③-④-|
①③口⑤ |⑤-⑥-|
⑧⑨口口 |⑦-⑧⑨|
32
口口②口 |①-②-|
③④口⑤ |③-④-|
口口①⑤ |⑤---|
口口口口
33
⑦⑧口口 |①-②-|
⑥口口口 |③-④-|
⑤口口口 |⑤-⑥-|
④③②① |⑦-⑧-|
34
⑨⑨①② |①-②-|
口口口③ |③-④-|
口口口④ |⑤-⑥⑦|
⑤⑧⑦⑥ |⑧-⑨-|
35
口口口口 |①②③④|
口②①口
口④③口
口口口口
36
口口⑥② |①-②-|
⑦口口① |③-④-|
③口口⑤ |⑤-⑥-|
④口⑨⑧ |⑦-⑧⑨|
37
②口口口 |①-②-|
口④⑤③ |③-④-|
口①⑤口 |⑤---|
口口口口
38
口口⑦⑤ |①-②③|
⑧⑨⑩口 |④-⑤-|
①口口⑥ |⑥-⑦-|
口④③② |⑧⑨⑩-|
39
②③口⑨ |①-②③|
口口口④ |④---|
①口口口 |⑤-⑥⑦|
⑤⑧⑦⑥ |⑧-⑨-|
40
②④⑥口 |①-②-|
口口口⑦ |③-④-|
①③⑤口 |⑤-⑥-|
口口⑨⑧ |⑦-⑧⑨|
41
②口口口 |①-②-|
口④⑤口 |③-④-|
①口⑤③ |⑤---|
口口口口
42
口口⑧⑦ |①-②-|
口口口⑥ |③-④-|
口口口⑤ |⑤-⑥-|
①②③④ |⑦-⑧-|
43
②①⑨⑨ |①-②-|
③口口口 |③-④-|
④口口口 |⑤-⑥⑦|
⑥⑦⑧⑤ |⑧-⑨-|
44
口口口口 |①②③④|
口①②口
口③④口
口口口口
45
②③④口 |①-②-|
①口口口 |--③-|
口口口口 |--④-|
⑤⑥⑦口 |⑤⑥⑦-|
46
②③④口 |①-②-|
①口口口 |--③-|
口口口口 |--④-|
⑤⑥⑦口 |⑤⑥⑦-|
47
②③口⑦ |①-②-|
①口口口 |--③-|
口⑥⑤④ |④⑤⑥-|
口口口口 |--⑦-|
48
口③②口 |①-②-|
口口口口 |--③-|
⑥⑦⑧⑨ |④⑤-⑥|
①口⑤④ |⑦⑧⑨-|
49
②③口⑦ |①-②-|
①口口口 |--③-|
口口口口 |④⑤⑥-|
口⑥⑤④ |--⑦-|
50
口③②⑦ |①-②-|
口口口口 |--③-|
口①口口 |④⑤⑥-|
口⑥⑤④ |--⑦-|
51
⑥⑦②口 |①-②-|
口口口① |③④⑤-|
③④⑤口 |--⑥-|
口口口口 |--⑦-|
52
口口②口 |①-②-|
口①口口 |③④-⑤|
⑧⑦⑥⑤ |⑥⑦⑧-|
③④口口
53
⑧口③② |①-②-|
⑦口口① |--③-|
口口口口 |④⑤⑥-|
④⑤⑥口 |⑦-⑧-|
54
口①口口 |--①-|
口②口口 |--②-|
口⑤④③ |③④⑤-|
口口口口
55
②③口⑧ |①-②-|
口口①⑦ |--③-|
口口口口 |④⑤⑥-|
口⑥⑤④ |⑦-⑧-|
56
口②①口 |--①-|
③④⑤口 |--②-|
口口口口 |③④⑤-|
口⑧⑦⑥ |⑥⑦⑧-|
57
⑧口③② |①-②-|
⑦口口① |--③-|
④⑤⑥口 |④⑤⑥-|
口口口口 |⑦-⑧-|
58
口①口口 |--①-|
口②口口 |--②-|
口口口口 |③④⑤-|
口⑤④③
59
⑧口③② |①-②-|
⑦口口① |--③-|
④⑤⑥口 |④⑤⑥-|
口口口口 |⑦-⑧-|
60
口①②口 |--①-|
口③④口 |--②-|
⑤口口⑥ |③④⑤⑥|
口口口口
61
⑤口口④ |①-②-|
口口口⑧ |③-④-|
⑨⑦口口 |⑤-⑥⑦|
①③②⑥ |⑧-⑨-|
62
口口②口 |①②-③|
口③①口
口口口口
口口口口
63
口①口⑦ |①-②-|
⑩口口⑥ |③-④⑤|
口⑤⑨口 |⑥-⑦-|
⑧③②④ |⑧⑨⑩-|
64
⑥②①口 |①-②-|
口口⑤口 |③④⑤-|
④⑧口口 |⑥-⑦⑧|
口口③⑦
65
⑩口口口 |①-②③|
④口⑨① |④-⑤-|
⑧口③⑤ |⑥-⑦⑧|
②⑥⑦口 |⑨-⑩-|
66
口口口② |①②-③|
口③口①
口口口口
口口口口
67
口①口口 |①-②-|
口口⑥⑩ |③-④⑤|
⑤⑨②口 |⑥-⑦-|
⑦③④⑧ |⑧⑨⑩-|
68
②口口口 |①②-③|
①③口口
口口口口
口口口口
69
口①口② |①--②|
口口⑤口 |--③④|
④口⑦口 |⑤-⑥⑦|
⑥口③口
70
⑤口④⑥ |①-②-|
①⑦口口 |③-④-|
⑨口口⑧ |⑤-⑥⑦|
口③口② |⑧-⑨-|
71
口口口口 |①②-③|
口口口口
口③①口
口口②口
72
⑧口口④ |①-②-|
③⑤⑨② |③-④⑤|
⑩口口⑥ |⑥-⑦-|
口①口⑦ |⑧⑨⑩-|
73
口口③⑦ |①-②-|
④⑧口口 |③④⑤-|
口口⑤口 |⑥-⑦⑧|
⑥②①口
74
⑥④⑤口 |①-②-|
口口⑦⑨ |③-④-|
⑧口口① |⑤-⑥⑦|
口口③② |⑧-⑨-|
75
口口口口 |①②-③|
口口口口
口①③口
口②口口
76
④②③⑧ |①-②-|
口⑨⑤口 |③-④⑤|
⑥口口⑩ |⑥-⑦-|
⑦口①口 |⑧⑨⑩-|
77
口口口口 |①②-③|
口口口口
口①③口
口②口口
78
③⑥口口 |①--②|
口口④⑦ |--③④|
⑤口口口 |⑤-⑥⑦|
口口①②
79
④口③② |①---|
口口口口 |----|
口①口口 |②-③-|
④口③② |--④-|
80
口①口口 |①-②③|
口④③② |④-⑤⑥|
⑦⑥⑤口 |⑦---|
口①口口
81
⑥②②③ |①---|
①⑤④③ |②---|
口口口① |③-④-|
口②②口 |⑤-⑥-|
82
⑨口⑥⑥ |①-②③|
⑤⑧⑦口 |④-⑤-|
②③④① |⑥-⑦-|
口口口① |⑧-⑨-|
83
口⑥口口 |①-②③|
⑤口口口 |④-⑤-|
②③④口 |⑥---|
口口①①
84
口口口① |①-②-|
口口②① |③④⑤-|
⑥口口口 |⑥---|
③④⑤口
85
③④⑤⑦ |①-②-|
⑥口口⑦ |③④⑤-|
⑧口②① |⑥-⑦-|
⑧口口① |⑧---|
86
口⑧⑦口 |①-②-|
⑥②①口 |③-④-|
口④③⑤ |⑤-⑥-|
口口口口 |⑦-⑧-|
87
④⑯⑮⑬ |①②③④|
⑫⑧③① |⑤⑥⑦⑧|
②⑭⑪⑨ |⑨⑩⑪⑫|
⑩⑥⑦⑤ |⑬⑭⑮⑯|
88
口口口口 |①---|
口口口① |----|
口口口口 |----|
口口口口 |----|
89
口口口口 |①---|
口口口口 |----|
口口口口 |----|
口口①口 |----|
90
口口口口 |----|
口口口口 |----|
口口口口
口口口口
91
口口口口 |①---|
口口口口 |----|
口口口口 |----|
口①口口 |----|
92
口口口口 |----|
口口口口 |----|
口口口口 |----|
口口口口
93
口口口口 |①---|
口口口口 |----|
口口口口 |----|
口口①口 |----|
94
口口口口 |----|
口口口口 |----|
口口口口 |----|
口口口口 |----|
95
口口口口 |----|
口口口口
口口口口
口口口口
96
⑥⑤④② |①-②-|
口口①口 |③-④-|
口口口口 |--⑤-|
③口口口 |--⑥-|
97
④③②① |--①-|
口口口口 |--②-|
口口口口 |--③-|
口口口口 |--④-|
98
⑤④③① |--①-|
口口口口 |②-③-|
口口口口 |--④-|
②口口口 |--⑤-|
99
④③②① |--①-|
口口口口 |--②-|
口口口口 |--③-|
口口口口 |--④-|
100
口⑦⑧口 |①-②-|
口口口口 |③-④-|
口⑤⑥口 |⑤-⑥-|
①③④② |⑦-⑧-|
101
①口口② |①-②-|
③口口④ |③-④-|
⑤口口⑥ |⑤-⑥-|
⑦口口⑧ |⑦-⑧-|
102
口口口⑧ |①-②-|
③⑦口④ |③-④-|
⑨①②口 |⑤-⑥-|
口⑤⑥口 |⑦-⑧⑨|
103
口②⑧口 |①②③④|
⑤口①⑧ |⑤⑥⑦-|
口③⑥口 |⑧---|
⑦口口④ |----|
104
①②口⑨ |①-②-|
③口口⑧ |③-④-|
④⑦口口 |⑤-⑥⑦|
⑤口口⑥ |⑧-⑨-|
105
口口②口 |①②-③|
口③①口
口口口口
口口口口
106
口①口⑦ |①-②-|
⑩口口⑥ |③-④⑤|
③⑤⑨② |⑥-⑦-|
⑧口口④ |⑧⑨⑩-|
107
⑥②①口 |①-②-|
口口⑤口 |③④⑤-|
④⑧口口 |⑥-⑦⑧|
口口③⑦
108
口口⑩口 |①-②③|
④口⑨① |④-⑤-|
⑧口③⑤ |⑥-⑦⑧|
②⑥⑦口 |⑨-⑩-|
109
口口口② |①②-③|
口③口①
口口口口
口口口口
110
口①口口 |①-②-|
口口⑥⑩ |③-④⑤|
⑤⑨③② |⑥-⑦-|
⑦口④⑧ |⑧⑨⑩-|
111
②口口口 |①②-③|
①③口口
口口口口
口口口口
112
口①口② |①--②|
口口④口 |--③-|
④口⑥口 |④-⑤⑥|
⑤口③口
113
口⑤④⑥ |①-②-|
①⑦口口 |③-④-|
口口口⑧ |⑤-⑥⑦|
⑨③口② |⑧-⑨-|
114
口口口口 |①②-③|
口口口口
口③①口
口口②口
115
⑧口口④ |①-②-|
③⑤⑨② |③-④⑤|
⑩口口⑥ |⑥-⑦-|
口①口⑦ |⑧⑨⑩-|
116
口口③⑦ |①-②-|
④⑧口口 |③④⑤-|
口⑥⑤口 |⑥-⑦⑧|
口②①口
117
⑥④⑤口 |①-②-|
口口⑦⑨ |③-④-|
⑧口口① |⑤-⑥⑦|
②口口③ |⑧-⑨-|
118
口口口口 |①②-③|
口口口口
口①③口
口②口口
119
⑧②③④ |①-②-|
口⑤⑨口 |③-④⑤|
⑩口口⑥ |⑥-⑦-|
口口①⑦ |⑧⑨⑩-|
120
⑨口口⑥ |①-②-|
⑩口口⑦ |③-④-|
口③②⑧ |⑤-⑥⑦|
①⑤④口 |⑧-⑨⑩|
121
口口②⑨ |①-②③|
口口③⑩ |④-⑤-|
①⑦④口 |⑥-⑦-|
⑧⑦⑥⑤ |⑧-⑨⑩|
122
⑨③②⑩ |①-②③|
⑧⑤④口 |④⑤⑥-|
⑦口⑥① |⑦-⑧-|
口口口口 |⑨-⑩-|
123
口⑩⑨口 |①-②③|
⑧⑫⑪口 |④-⑤⑥|
口⑦⑥⑤ |⑦-⑧-|
①④③② |⑨⑩⑪⑫|
124
②口⑪⑩ |①-②-|
⑨口口① |③④⑤⑥|
⑧⑦口口 |⑦-⑧-|
③④⑤⑥ |⑨-⑩⑪|
125
口①口口 |①-②③|
口④③② |④-⑤⑥|
口⑦⑥⑤ |⑦-⑧-|
⑨⑩⑪⑧ |⑨⑩⑪-|
126
⑧④③⑨ |①-②-|
②⑥⑤口 |③④⑤⑥|
①口⑦口 |⑦-⑧-|
⑩口口口 |⑨-⑩-|
127
口口口口 |①-②-|
②口口口
①口口口
口口口口
128
④口③② |①---|
口口口① |----|
口口口① |②-③-|
④口③② |--④-|
129
口⑦⑦口 |①-②-|
⑥⑤④⑦ |③-④⑤|
⑦③②① |⑥---|
口⑦⑦口 |⑦---|

不確定度: 0

最終更新:2014年11月06日 17:02