滅亡天使 † にこきゅっぴん
日向美ビタースイーツ♪

EXTREME

Level: 9
BPM: 200
Notes: 617

1
口口口口 |----|
口口口口 |----|
口口口口 |----|
口口口口 |----|
2
口口口口 |----|
口口口口 |----|
口口口口 |----|
口口口口 |----|
3
①口口① |①---|
口②③口 |②-③-|
口④⑤口 |--④-|
口口口口 |⑤---|
4
口口口口 |①---|
口②③口 |②-③-|
口④⑤口 |--④-|
①口口① |⑤---|
5
口①①口 |①---|
②口口③ |②-③-|
④口口⑤ |--④-|
口口口口 |⑤---|
6
口口口口 |①---|
②口口③ |②-③-|
④口口⑤ |--④-|
口①①口 |⑤---|
7
①①①① |①---|
口②③口 |②-③-|
口④⑤口 |--④-|
口口口口 |⑤---|
8
口口口口 |①---|
口②③口 |②-③-|
口④⑤口 |--④-|
①①①① |⑤---|
9
①①①① |①---|
口②③口 |②-③-|
口⑤⑥口 |④---|
④④④④ |⑤-⑥-|
10
①③④① |①---|
口④④④ |②---|
②口④② |③---|
口口④口 |④---|
11
①口口④ |①---|
口口口口 |②---|
②口口口 |③---|
口③口口 |--④-|
12
口口口口 |--①-|
口③③口 |--②-|
口④④① |③---|
口口②口 |④---|
13
①口口口 |①---|
口口口口 |②---|
②口口口 |③---|
口③口口 |----|
14
口口⑥口 |①-②-|
口口口⑥ |③-④-|
口②⑤④ |⑤---|
①口③⑤ |⑥---|
15
①口口④ |①---|
口口口口 |②---|
②口口口 |③---|
口③口口 |--④-|
16
口口口口 |--①-|
口③③口 |--②-|
口④④① |③---|
口口②口 |④---|
17
①口口口 |①---|
口口口口 |②---|
②口口口 |③---|
口③口口 |----|
18
口口⑥口 |①-②-|
口口口⑥ |③-④-|
口②⑤④ |⑤---|
①口③⑤ |⑥---|
19
口口口口 |①---|
口①①口 |----|
口②②口 |②---|
口口口口 |----|
20
①口口① |①--②|
②口口② |--③-|
③口口③
口口口口

⑥口口口
口口口口
口④⑤口 |--④-|
口④⑤口 |⑤-⑥-|
21
口口⑥⑦ |--①-|
④⑤①口 |②-③-|
口口口口 |④-⑤-|
②口口③ |⑥-⑦-|
22
①①口口 |①---|
口⑥⑥③ |②---|
②②④口 |③-④-|
口⑤口口 |⑤-⑥-|
23
口②③口 |--①-|
①口口口 |②-③-|
口④④⑤ |④-⑤-|
口⑦⑥口 |⑥-⑦-|
24
①口口口 |①-②-|
口⑤⑥② |③-④-|
③⑤⑥口 |⑤-⑥-|
口⑦⑦④ |⑦---|
25
②①①③ |①---|
②③④③ |②---|
口③④口 |③-④-|
口⑤⑤口 |⑤---|
26
②①①③ |①---|
②③④③ |②---|
口③④口 |③-④-|
口⑤⑤口 |⑤---|
27
口①①口 |①---|
口口口② |----|
口口口口 |②---|
口口口口 |----|
28
⑤口④口 |①---|
口口口③ |②---|
口口②口 |③---|
口口口① |④-⑤-|
29
口口⑥⑦ |--①-|
④⑤①口 |②-③-|
口口口口 |④-⑤-|
②口口③ |⑥-⑦-|
30
①②口口 |①-②-|
口⑧⑧⑤ |③-④-|
③④⑥口 |⑤-⑥-|
口⑦口口 |⑦-⑧-|
31
口②③口 |--①-|
①口口口 |②-③-|
口④④⑤ |④-⑤-|
口⑦⑥口 |⑥-⑦-|
32
①口口口 |①-②-|
口⑤⑥② |③-④-|
③⑤⑥口 |⑤-⑥-|
口⑦⑦④ |⑦---|
33
②①①③ |①---|
②③④③ |②---|
口③④口 |③-④-|
口⑤⑤口 |⑤---|
34
②①①③ |①---|
②③④③ |②---|
口③④口 |③-④-|
口⑤⑤口 |⑤---|
35
口①①口 |①---|
口③口⑤ |----|
②口④口 |②-③-|
口口口口 |④-⑤-|
36
④⑤⑥⑦ |--①-|
②口口口 |--②-|
口口口③ |③--④⑤⑥|
口口①口 |⑦---|
37
③⑤口④ |①---|
口①②口 |②---|
口②①口 |③---|
④口口③ |④-⑤-|
38
口口口④ |--①-|
口③口口 |②---|
口口①口 |③---|
④②口口 |④---|
39
③口①④ |①---|
口口⑤口 |②---|
口口②口 |③---|
④口口口 |④-⑤-|
40
口口①⑤ |--①-|
口②口口 |②-③-|
口口③口 |④---|
⑤④口口 |⑤---|
41
④②③口 |①---|
②口口③ |②---|
①口口① |③---|
口口口④ |④---|
42
③口口口 |①---|
口②②口 |--②-|
口口口口 |----|
口①①③ |③---|
43
口④口① |①---|
口②③口 |--②-|
口③②口 |③---|
①口④口 |④---|
44
口口①口 |①---|
②口口③ |--②-|
③口口② |③---|
口①口口 |----|
45
口①②口 |①---|
口口口③ |②---|
口口口④ |③---|
口口口口 |④---|
46
口口口口 |①---|
④口口口 |②---|
③口口口 |③---|
口②①口 |④---|
47
口④③口 |①---|
口口口② |②---|
口口口① |③---|
口口口口 |④---|
48
口口口口 |①---|
①口口口 |②---|
②口口口 |③---|
口③④口 |④---|
49
口①②口 |①---|
口口口③ |②---|
口口口④ |③---|
口口口口 |④---|
50
口口口口 |①---|
④口口口 |②---|
③口口口 |③---|
口②①口 |④---|
51
口⑧⑦口 |①-②-|
口②①⑥ |③-④-|
口③④⑤ |⑤-⑥-|
口口口口 |⑦-⑧-|
52
口口口口 |①-②-|
①⑦⑥口 |③-④-|
②⑧⑤口 |⑤-⑥-|
口③④口 |⑦-⑧-|
53
②口口① |①---|
口口口口 |②---|
口口口口 |③---|
④口口③ |④---|
54
口①③口 |①-②-|
口口口口 |--③-|
口口口口 |④---|
口②④口 |----|
55
口③口① |①-②-|
④口②口 |③-④-|
口⑥口⑧ |⑤-⑥-|
⑤口⑦口 |⑦-⑧-|
56
①⑤⑤① |①-②③|
⑨②⑥⑨ |④-⑤-|
口⑦③口 |⑥⑦⑧-|
口④⑧口 |⑨---|
57
①口口① |①---|
口口口口 |②---|
口口口口
口②口②

④③③④
口口口口
口口③口 |③---|
口口口口 |--④-|
58
口②②口 |----|
③口口③ |①---|
口②口口 |②---|
①口①口 |--③-|
59
①口④口 |--①-|
口口⑤口 |②-③-|
③口⑥② |④-⑤-|
口口⑦口 |⑥-⑦-|
60
①口口② |①-②-|
①口⑥② |③-④-|
③⑤口④ |--⑤-|
③口口④ |⑥---|
61
①口口① |①---|
口口口口 |②---|
口口口口
②口②口

④③③④
口口口口
口口③口 |③---|
口口口口 |--④-|
62
口口口口 |----|
口②口② |①---|
口②②② |②---|
③①②① |--③-|
63
口③④口 |①-②-|
②口⑦⑤ |③-④-|
①口口⑥ |⑤-⑥-|
⑦口口口 |--⑦-|
64
口口口口 |--①-|
①②⑥口 |②-③-|
③④③⑤ |④-⑤-|
口②①口 |⑥---|
65
①口口① |①---|
口口口口 |②---|
口口口口
口②口②

④③③④
口口口口
口口③口 |③---|
口口口口 |--④-|
66
口②②口 |----|
③口口③ |①---|
口②口口 |②---|
①口①口 |--③-|
67
①口口④ |--①-|
口⑤口口 |②-③-|
③口口② |④-⑤-|
口⑦口⑥ |⑥-⑦-|
68
①②③口 |①-②-|
④⑤④⑥ |③-④-|
③②①口 |--⑤-|
口口口口 |⑥---|
69
①口口① |①---|
口口口口 |②---|
口口口口
②口②口

④③③④
口口口口
口口③口 |③---|
口口口口 |--④-|
70
③口③口 |----|
口②口② |①---|
口②②② |②---|
口①②① |--③-|
71
口口口口 |----|
①口①口 |①---|
口③口③ |②---|
口②口② |③---|
72
③②③① |①---|
口②口① |②---|
①口②口 |③---|
①③②③ |----|
73
口口口① |①---|
口口口② |②---|
口口口口
口口口口

口口口④
口口口口
口口口③ |③---|
口口口口 |--④-|
74
口口口口 |--①-|
口口口① |--②-|
口口③② |③---|
口口口口 |----|
75
①口口① |①---|
②口口② |②---|
口口口口
口口口口

④口口④
口口口口
③口口③ |③---|
口口口口 |--④-|
76
口口口口 |--①-|
①口口① |--②-|
②③③② |③---|
口④④口 |④---|
77
②①①③ |①---|
口⑤⑥口 |②-③-|
②口口③ |④-⑤-|
④口口⑦ |⑥-⑦-|
78
口②①④ |--①-|
②③口① |--②-|
①口③② |③---|
口①②口 |④---|
79
①口口④ |①---|
口口口口 |②---|
②口口口 |③---|
口③口口 |--④-|
80
口口口口 |--①-|
口③③口 |--②-|
口④④① |③---|
口口②口 |④---|
81
①口口口 |①---|
口口口口 |②---|
②口口口 |③---|
口③口口 |----|
82
口口⑥口 |①-②-|
口口口⑥ |③-④-|
口②⑤④ |⑤---|
①口③⑤ |⑥---|
83
①口口④ |①---|
口口口口 |②---|
②口口口 |③---|
口③口口 |--④-|
84
口口口口 |--①-|
口③③口 |--②-|
口④④① |③---|
口口②口 |④---|
85
①口口口 |①---|
口口口口 |②---|
②口口口 |③---|
口③口口 |----|
86
口口⑥口 |①-②-|
口口口⑥ |③-④-|
口②⑤④ |⑤---|
①口③⑤ |⑥---|
87
口①口口 |①---|
①①①口 |----|
口①口口 |----|
口①口口 |----|
88
口口口口 |----|
口口口口 |----|
口口口口 |----|
口口口口 |----|
89
口口口口 |----|
口口口口 |----|
口口口口 |----|
口口口口 |----|
90
口口口口 |----|
口口口口 |----|
口口口口 |----|
口口口口 |----|
91
口①①口 |----|
口①口① |----|
①①口口 |①---|
①①口口 |----|

不確定度: 0

最終更新:2014年11月02日 02:34