planarian
S-C-U

EXTREME

Level: 10
BPM: 164
Notes: 704

1
口口口口 |----|
口口口口 |----|
口口口口 |----|
口口口口 |----|
2
①①口口 |①-②-|
口口⑦④ |③-④-|
口口⑥③ |--⑤-|
口口⑤② |⑥-⑦-|
3
口口口口 |①-②-|
①①⑦④ |③-④-|
口口⑥③ |--⑤-|
口口⑤② |⑥-⑦-|
4
①①口口 |①-②-|
⑤⑤⑧④ |③-④-|
口口⑦③ |⑤-⑥-|
口口⑥② |⑦-⑧-|
5
口口口口 |①-②-|
口⑨⑥口 |③-④-|
①⑦口② |⑤-⑥⑦|
③⑤⑧④ |⑧-⑨-|
6
①①②② |①---|
口⑤口口 |--②-|
口④口口 |--③-|
口③口口 |④-⑤-|
7
口口口口 |--①-|
③⑥口口 |②-③-|
②⑤口口 |--④-|
①④口口 |⑤-⑥-|
8
口①①口 |①---|
②口口② |②---|
③口口③ |③---|
口④④口 |④---|
9
口口口③ |①--②|
口②①口 |--③-|
口①②口
③口口口

④口口口
口口⑦⑧
⑤⑥口口 |④---|
口口口④ |⑤⑥⑦⑧|
10
口①口口 |①---|
口口口口 |----|
口③口口 |----|
口口②口 |--②③|
11
口④口① |①-②-|
口⑦⑤口 |③-④-|
③口②口 |⑤-⑥-|
⑧口口⑥ |⑦-⑧-|
12
口口口① |①---|
口口口口 |----|
口口口口
口口口口

口口口②
口口③口
口口口口 |----|
口口口口 |--②③|
13
口③口口 |①-②-|
口口口① |③-④-|
④②口口
口口口口

口口口口
⑥⑦⑧⑨
口口口口 |⑤--⑥⑦⑧|
⑩口⑤口 |⑨-⑩-|
14
②口口口 |①---|
口口⑤口 |--②-|
口口④口 |--③-|
口口③① |④-⑤-|
15
口口口口 |--①-|
口口⑥③ |②-③-|
口口⑤② |--④-|
口口④① |⑤-⑥-|
16
口⑧⑤① |①-②③|
②口口口 |④-⑤-|
⑦③口口 |⑥--⑦|
④⑥口口 |--⑧-|
17
口口⑪⑧ |①②③④|
口⑥⑨⑩ |⑤-⑥⑦|
口②①⑦ |-⑧⑨⑩|
④口⑤③ |⑪---|
18
①①口⑥ |①-②③|
⑨口⑨口 |④⑤⑥-|
⑤⑧③⑧ |⑦--⑧|
⑦④⑦② |--⑨-|
19
口④⑤⑥ |①-②-|
⑨口⑪③ |③-④⑤|
口⑩②⑫ |⑥-⑦⑧|
口⑦⑧① |⑨⑩⑪⑫|
20
③口口③ |①--②|
口口口口 |--③-|
②口②口
①口口口

口口口口
口口口④
口⑥口口 |--④-|
⑤口口口 |⑤-⑥-|
21
口②④⑤ |①-②-|
①⑨⑦⑪ |③-④⑤|
⑧⑥⑩口 |--⑥⑦|
口口口③ |⑧⑨⑩⑪|
22
口①②口 |-①②-|
⑦口口口 |③-④-|
口⑥口⑤ |--⑤-|
③③④④ |⑥-⑦-|
23
口①④⑤ |①-②-|
⑪⑦⑨口 |③-④⑤|
②⑩⑥⑧ |--⑥⑦|
口口口③ |⑧⑨⑩⑪|
24
口②口④ |-①②-|
口口口口 |③④-⑤|
口口口口
③口①⑤

⑥口口口
口⑩⑧口
口口口口 |⑥-⑦⑧|
口⑦⑨口 |-⑨⑩-|
25
口④②⑥ |①②-③|
口口口口 |④-⑤⑥|
口①③口
⑤口口口

口口口口
⑧口⑨口
口⑩口⑦ |-⑦⑧-|
口口口口 |⑨-⑩-|
26
①①口⑥ |①-②③|
⑨口⑨口 |④⑤⑥-|
⑤⑧③⑧ |⑦--⑧|
⑦④⑦② |--⑨-|
27
口④⑤⑥ |①-②-|
⑨口⑪③ |③-④⑤|
口⑩②⑫ |⑥-⑦⑧|
口⑦⑧① |⑨⑩⑪⑫|
28
①口⑥口 |①--②|
口②口② |--③-|
口⑤口口 |--④-|
③口④③ |⑤-⑥-|
29
⑤④口③ |①-②-|
口口口② |③-④⑤|
口口①口
口口口口

口口口口
口⑨⑦⑪
⑧⑥⑩口 |--⑥⑦|
口口口口 |⑧⑨⑩⑪|
30
口口②口 |-①②-|
⑥口⑥口 |③---|
口⑤口⑤ |④--⑤|
④①④③ |--⑥-|
31
③口④⑤ |①-②-|
⑪⑦⑨口 |③-④⑤|
②⑩⑥⑧ |--⑥⑦|
口①口口 |⑧⑨⑩⑪|
32
⑥②④⑧ |-①②-|
口⑩口口 |③④-⑤|
口口⑨口 |⑥-⑦⑧|
⑦③①⑤ |-⑨⑩-|
33
⑦④口⑥ |①②-③|
口口②口 |④-⑤⑥|
口①口⑧ |--⑦-|
⑤⑨③口 |⑧-⑨-|
34
④①④① |----|
口口口口 |①---|
①③①③ |②--③|
②口口② |--④-|
35
口⑥口⑥ |--①-|
口口③② |②-③-|
口⑤⑤口 |④--⑤|
④口①④ |--⑥-|
36
口口①口 |--①-|
口②口口 |②-③-|
③口口口
口口口口

⑥口⑥口
口口口口
口⑤⑤口 |④--⑤|
④口口④ |--⑥-|
37
口①口口 |--①-|
④口②口 |②-③-|
口⑤口③ |--④-|
口口⑥口 |⑤-⑥-|
38
口②口② |①--②|
⑤③③口 |--③-|
口口⑦⑥ |--④-|
①④口口 |⑤-⑥⑦|
39
口④③② |①-②③|
口⑩⑨⑧ |④-⑤⑥|
口①⑫⑪ |⑦-⑧⑨|
口⑦⑥⑤ |⑩-⑪⑫|
40
①②①② |①--②|
⑤⑦口口 |--③-|
口口⑥口 |--④-|
④③③口 |⑤-⑥⑦|
41
口④①口 |①-②③|
口口③口 |④-⑤⑥|
口②口⑥
⑤口口口

口口口口
⑨口⑭⑧
⑦⑬⑫口 |⑦⑧⑨⑩|
口⑪⑩口 |⑪⑫⑬⑭|
42
①①②口 |①-②-|
口③口口 |③-④-|
④口口口
口口口口

⑦口⑦口
口口口口
口⑥⑥口 |⑤--⑥|
⑤口口⑤ |--⑦-|
43
口⑥口⑥ |--①-|
口口③口 |②-③-|
口⑤⑤② |④--⑤|
④口①④ |--⑥-|
44
口口①口 |--①-|
口②口口 |②-③-|
③口口口
口口口口

⑥口⑥口
口口口口
口⑤⑤口 |④--⑤|
④口口④ |--⑥-|
45
口①口口 |--①-|
口口②⑥ |②-③-|
口口⑤③ |--④-|
口④口口 |⑤-⑥-|
46
①②①② |①--②|
⑤③③口 |--③-|
口口⑦⑥ |--④-|
④口口口 |⑤-⑥⑦|
47
口④③② |①-②③|
口⑩⑨⑧ |④-⑤⑥|
口①口口 |⑦-⑧⑨|
口⑦⑥⑤ |⑩---|
48
①口口口 |①--②|
口口⑥口 |--③-|
口⑤②口 |--④-|
③口口④ |⑤-⑥-|
49
①⑤⑥② |①-②-|
③⑦⑧④ |③-④-|
口⑨⑩口 |⑤⑥⑦⑧|
口⑪⑫口 |⑨⑩⑪⑫|
50
口口口口 |①---|
①口口口 |----|
①口口口 |----|
口口口口 |----|
51
口口口口 |----|
口口口口 |----|
口口口口 |----|
口口口口 |----|
52
⑨③①① |①-②③|
⑦口⑫⑥ |-④⑤⑥|
⑤⑪⑩④ |⑦-⑧⑨|
口口⑧② |-⑩⑪⑫|
53
口③口口 |①-②③|
⑥①口口 |-④⑤⑥|
口口口⑤
④口口②

⑧口口⑦
口⑭⑬口
口⑩⑨口 |⑦⑧⑨⑩|
口⑫⑪口 |⑪⑫⑬⑭|
54
口③①口 |①-②③|
⑤口口④ |-④⑤⑥|
口口口②
口口口⑥

⑨口口⑧
口口口口
口⑪⑩⑫ |⑦-⑧⑨|
⑦口口口 |-⑩⑪⑫|
55
口③⑤⑥ |①-②③|
口口口口 |-④⑤⑥|
①口口口
口④②口

口口口口
⑦⑧⑨⑩
⑪⑫⑬⑭ |⑦⑧⑨⑩|
口口口口 |⑪⑫⑬⑭|
56
①①⑥③ |①-②③|
⑤⑦⑪⑩ |-④⑤-|
口⑫⑧口 |⑥⑦⑧⑨|
⑨②口④ |-⑩⑪⑫|
57
口③⑤⑬ |①-②③|
⑥⑦⑫口 |-④⑤-|
①⑪⑧⑨ |⑥⑦⑧⑨|
⑩④②口 |⑩⑪⑫⑬|
58
①③口口 |①-②③|
口④口⑤ |-④⑤⑥|
口口口口
口⑥②口

⑩口⑪口
⑨口口口
口⑫口⑧ |⑦-⑧⑨|
口口口⑦ |-⑩⑪⑫|
59
口⑥口③ |①-②③|
口②口口 |-④⑤⑥|
口口①⑤
④口口口

口口口口
⑧⑭⑬⑦
口⑫⑪口 |⑦⑧⑨⑩|
口⑩⑨口 |⑪⑫⑬⑭|
60
⑨③①① |①-②③|
⑦口⑫⑥ |-④⑤⑥|
⑤⑪⑩④ |⑦-⑧⑨|
口口⑧② |-⑩⑪⑫|
61
口③口口 |①-②③|
⑥①口口 |-④⑤⑥|
口口口⑤
④口口②

⑧口口⑦
口⑭⑬口
口⑩⑨口 |⑦⑧⑨⑩|
口⑫⑪口 |⑪⑫⑬⑭|
62
口③①口 |①-②③|
⑤口口④ |-④⑤⑥|
口口口②
口口口⑥

⑨口口⑧
口口口口
口⑪⑩⑫ |⑦-⑧⑨|
⑦口口口 |-⑩⑪⑫|
63
口③⑤⑥ |①-②③|
口口口口 |-④⑤⑥|
①口口口
口④②口

口口口口
⑦⑧⑨⑩
⑪⑫⑬⑭ |⑦⑧⑨⑩|
口口口口 |⑪⑫⑬⑭|
64
①①口④ |①-②-|
⑤口口⑧ |③-④-|
⑥口口⑦ |⑤-⑥-|
②口口③ |⑦-⑧-|
65
①①④口 |①-②-|
口⑤⑧口 |③-④-|
口⑥⑦口 |⑤-⑥-|
口②③口 |⑦-⑧-|
66
①①口④ |①-②-|
⑤⑤口⑧ |③-④-|
⑥口口⑦ |⑤-⑥-|
②口口③ |⑦-⑧-|
67
③②①口 |①②③④|
⑥⑤④口 |⑤⑥⑦⑧|
口⑧⑦口
口口口口

⑯⑮⑭⑬
口口口口
⑨口口口 |⑨⑩⑪⑫|
⑫⑪⑩口 |⑬⑭⑮⑯|
68
口口口口 |①---|
口①①口 |----|
口③口口 |----|
口口②口 |--②③|
69
口④口① |①-②-|
口⑦⑤口 |③-④-|
③口②口 |⑤-⑥-|
⑧口口⑥ |⑦-⑧-|
70
口口口① |①---|
口口口口 |----|
口口口口
口口口口

口口口②
口口③口
口口口口 |----|
口口口口 |--②③|
71
口③口口 |①-②-|
口口口① |③-④-|
④②口口
口口口口

口口口口
⑥⑦⑧⑨
口口口口 |⑤--⑥⑦⑧|
⑩口⑤口 |⑨-⑩-|
72
②口口口 |①---|
口口⑤口 |--②-|
口口④口 |--③-|
口口③① |④-⑤-|
73
口口口口 |--①-|
口口⑥③ |②-③-|
口口⑤② |--④-|
口口④① |⑤-⑥-|
74
口⑧⑤① |①-②③|
②口口口 |④-⑤-|
⑦③口口 |⑥--⑦|
④⑥口口 |--⑧-|
75
口口⑪⑧ |①②③④|
口⑥⑨⑩ |⑤-⑥⑦|
口②①⑦ |-⑧⑨⑩|
④口⑤③ |⑪---|
76
口口口口 |①---|
口口口口 |----|
①口①口 |----|
口①口① |----|

不確定度: 0

最終更新:2014年11月02日 02:24