10,000,000,000
TAG feat. 96

EXTREME

Level: 10
BPM: 205
Notes: 702

1
口口口口 |----|
口口口口 |----|
口口口口 |----|
口口口口 |----|
2
⑦①④口 |①-②-|
①⑦口④ |③-④-|
口③②口 |⑤-⑥-|
口⑤⑥⑧ |⑦-⑧-|
3
口②⑧⑦ |①-②-|
②口⑥⑤ |③-④-|
口④③① |⑤-⑥-|
口口口口 |⑦-⑧-|
4
①④口⑦ |①-②-|
④①⑦口 |③-④-|
口⑥⑤③ |⑤-⑥-|
⑧口口② |⑦-⑧-|
5
⑤⑥②口 |①-②-|
⑦⑧口② |③-④-|
①口口口 |⑤-⑥-|
口③④口 |⑦-⑧-|
6
口⑦④① |①-②-|
⑦口①④ |③-④-|
③口口口 |⑤-⑥-|
②⑤⑥⑧ |⑦-⑧-|
7
②口口口 |①-②-|
口②③口 |③-④-|
口④⑤① |⑤-⑥-|
⑧⑥⑦口 |⑦-⑧-|
8
②③①④ |①-②-|
⑤⑥④① |③-④-|
⑧口口⑦ |⑤-⑥-|
口口⑦口 |⑦-⑧-|
9
⑧口口⑤ |①-②-|
口⑦⑥口 |③-④-|
口①②口 |⑤-⑥-|
③④口② |⑦-⑧-|
10
口④①⑦ |①-②-|
④口⑦① |③-④-|
口②③口 |⑤-⑥-|
⑧⑥⑤口 |⑦-⑧-|
11
⑦⑧②口 |①-②-|
⑤⑥口② |③-④-|
①③④口 |⑤-⑥-|
口口口口 |⑦-⑧-|
12
⑦口④① |①-②-|
口⑦①④ |③-④-|
③⑤⑥口 |⑤-⑥-|
②口口⑧ |⑦-⑧-|
13
口②⑥⑤ |①-②-|
②口⑧⑦ |③-④-|
口口口① |⑤-⑥-|
口④③口 |⑦-⑧-|
14
①④⑦口 |①-②-|
④①口⑦ |③-④-|
口口口③ |⑤-⑥-|
⑧⑥⑤② |⑦-⑧-|
15
口口口② |①-②-|
口③②口 |③-④-|
①⑤④口 |⑤-⑥-|
口⑦⑥⑧ |⑦-⑧-|
16
④①③② |①-②-|
①④⑥⑤ |③-④-|
⑦口口⑧ |⑤-⑥-|
口⑦口口 |⑦-⑧-|
17
口③⑤④ |①-②-|
②口⑦⑥ |--③-|
口③①口 |④-⑤-|
②口口口 |⑥-⑦-|
18
口口口口 |①---|
口口⑥口 |②---|
口⑤口① |③-④-|
②③④口 |⑤-⑥-|
19
③①口④ |①-②-|
⑤③口② |--③-|
①口④口 |--④-|
口口口口 |--⑤-|
20
③②①口 |①---|
⑥口⑤④ |②-③-|
②③口① |--④-|
口⑥④⑤ |⑤-⑥-|
21
口口口口 |--①-|
口口口口 |--②-|
②④口口 |--③-|
①口③口 |④---|
22
口口①② |①---|
口口口③ |②---|
口口口① |③-④-|
④⑥口⑤ |⑤-⑥-|
23
③②口④ |--①-|
口①口口 |--②-|
②③④口 |③---|
口口口口 |④---|
24
口口⑦口 |①-②-|
①②③④ |③-④-|
口⑥口口 |--⑤-|
口口口⑤ |⑥-⑦-|
25
①③口③ |①-②-|
口口口口 |--③-|
口口②口 |--④-|
④口④口 |----|
26
口口口口 |①---|
口④口口 |----|
口①③① |--②-|
口②口口 |③-④-|
27
④口①③ |①-②-|
②口③⑤ |--③-|
口④口口 |--④-|
口口口口 |--⑤-|
28
口①②③ |①---|
④⑤口⑥ |②-③-|
①口③② |--④-|
⑤④⑥口 |⑤-⑥-|
29
口口口口 |--①-|
口口口口 |--②-|
口口④② |--③-|
口③口① |④---|
30
②①口口 |①---|
③口口口 |②---|
①口口口 |③-④-|
⑤口⑥④ |⑤-⑥-|
31
④口②③ |--①-|
口口①口 |--②-|
口④③② |③---|
口口口口 |④---|
32
口口⑥⑤ |①-②-|
口口口口 |③-④-|
口口口口 |--⑤-|
④③②① |--⑥-|
33
②①口口 |--①-|
口口口口 |--②-|
口口口口 |③---|
口③③口 |----|
34
口口口口 |①---|
⑥①①⑤ |②---|
④⑥⑤③ |③-④-|
口④③② |⑤-⑥-|
35
口口②① |--①-|
口口口口 |②---|
④口口口 |③---|
③口口口 |④---|
36
②口口② |①---|
口②②口 |②---|
口①①口 |----|
口口口③ |③---|
37
口口口口 |----|
③口②④ |①---|
④②口③ |②-③-|
口口①口 |--④-|
38
口③②口 |①---|
口①口口 |②-③-|
口口①口 |----|
口②③④ |④---|
39
口口口口 |----|
口③③口 |①---|
口口口口 |②---|
①②口口 |③---|
40
②③口① |①---|
⑤⑤⑤⑤ |②-③-|
②③①口 |--④-|
口④④口 |--⑤-|
41
口口口口 |----|
口口口口 |①---|
②口③② |②---|
口口口① |③---|
42
①①口口 |①---|
⑤口口⑥ |②---|
③⑤⑥④ |③-④-|
口③④② |⑤-⑥-|
43
①②口口 |--①-|
口③③口 |②---|
口⑤⑤口 |③---|
口口④口 |④-⑤-|
44
④⑤口口 |①---|
①口口① |②-③-|
②口口口 |----|
②③口口 |④-⑤-|
45
口口②① |①-②-|
④④④④ |--③-|
口口②① |--④-|
口③③口 |----|
46
口口⑦口 |①-②-|
口口⑥口 |③-④-|
⑤③②⑦ |⑤-⑥-|
④口口① |--⑦-|
47
④⑥⑦② |①-②-|
口口口口 |③-④-|
⑥④②⑦ |⑤-⑥-|
口⑤③① |--⑦-|
48
⑥口口口 |--①-|
口②③口 |②-③-|
口⑥口口 |④-⑤-|
①口⑤④ |--⑥-|
49
口②④⑥ |①-②-|
口口⑦口 |③-④-|
②口⑥④ |⑤-⑥-|
③①口⑤ |--⑦-|
50
③②④⑤ |①---|
①①口⑥ |②-③-|
④口口口 |--④-|
⑤⑥口口 |⑤-⑥-|
51
口口口口 |--①-|
口⑤口口 |--②-|
口③④口 |--③-|
口口②① |④-⑤-|
52
⑥口①口 |①---|
⑤口③口 |②-③-|
④口口① |--④-|
②口口③ |⑤-⑥-|
53
口口②① |①-②-|
口④④口 |--③-|
口口②① |--④-|
④③③④ |----|
54
①口⑦② |①-②-|
③口口④ |③-④-|
口⑥口⑦ |⑤-⑥-|
口⑤口口 |--⑦-|
55
⑥④⑦② |①-②-|
口口口口 |③-④-|
④⑥②⑦ |⑤-⑥-|
⑤口③① |--⑦-|
56
⑥口口口 |--①-|
①口⑤口 |②-③-|
口⑥④口 |④-⑤-|
口口③② |--⑥-|
57
口②④⑥ |①-②-|
口口⑦口 |③-④-|
②口⑥④ |⑤-⑥-|
③①口⑤ |--⑦-|
58
④③口口 |①---|
⑤①口口 |--②-|
口①口③ |--③-|
②口⑤④ |④-⑤-|
59
口口②① |--①-|
口口⑤口 |--②-|
口④③口 |--③-|
口口口口 |④-⑤-|
60
口①口⑤ |①---|
口③口④ |②-③-|
①口口口 |--④-|
③口口② |⑤---|
61
①②口口 |①-②-|
④④④④ |--③-|
①②口口 |--④-|
口③③口 |----|
62
①口①口 |①---|
口口口口 |--②-|
①口①口 |----|
④②②③ |③-④-|
63
口口口口 |①---|
②口口② |----|
②①①② |②---|
口口口口 |----|
64
①①①① |①-②-|
口③②⑧ |③-④-|
口⑤④口 |⑤-⑥-|
⑦⑦⑥⑥ |⑦-⑧-|
65
口口口口 |①-②-|
①口口⑧ |③-④-|
③⑤④② |⑤-⑥-|
⑦⑦⑥口 |⑦-⑧-|
66
①④口⑦ |①-②-|
④①⑦口 |③-④-|
口⑥⑤③ |⑤-⑥-|
⑧口口② |⑦-⑧-|
67
⑤⑥②口 |①-②-|
⑦⑧口② |③-④-|
①口口⑦ |⑤-⑥-|
口③④⑤ |⑦-⑧-|
68
口⑦④① |①-②-|
⑦口①④ |③-④-|
③③口口 |⑤-⑥-|
②⑤⑥⑧ |⑦-⑧-|
69
②口口口 |①-②-|
口②③口 |③-④-|
④④⑤① |⑤-⑥-|
⑧⑥⑦口 |⑦-⑧-|
70
②③①④ |①-②-|
⑤⑥④① |③-④-|
⑧口口⑦ |⑤-⑥-|
口口⑦口 |⑦-⑧-|
71
⑧口口⑤ |①-②-|
口⑦⑥口 |③-④-|
口①②口 |⑤-⑥-|
③④口② |⑦-⑧-|
72
口④①⑦ |①-②-|
④口⑦① |③-④-|
口②③③ |⑤-⑥-|
⑧⑥⑤⑤ |⑦-⑧-|
73
⑦⑧②口 |①-②-|
⑤⑥口② |③-④-|
①③④⑦ |⑤-⑥-|
口口口⑤ |⑦-⑧-|
74
⑦口④① |①-②-|
口⑦①④ |③-④-|
③⑤⑥口 |⑤-⑥-|
②②口⑧ |⑦-⑧-|
75
口②⑥⑤ |①-②-|
②口⑧⑦ |③-④-|
⑦口口① |⑤-⑥-|
⑤④③口 |⑦-⑧-|
76
①④⑦口 |①-②-|
④①口⑦ |③-④-|
口口③③ |⑤-⑥-|
⑧⑥⑤② |⑦-⑧-|
77
口口口② |①-②-|
口③②口 |③-④-|
①⑤④④ |⑤-⑥-|
口⑦⑥⑧ |⑦-⑧-|
78
④①③② |①-②-|
①④⑥⑤ |③-④-|
⑦口口⑧ |⑤-⑥-|
口⑦口⑧ |⑦-⑧-|
79
口③⑤④ |①-②-|
②口⑦⑥ |--③-|
口③①口 |④-⑤-|
②口①口 |⑥-⑦-|
80
③口④④ |①---|
③①④④ |--②-|
③②④④ |----|
③②④④ |③-④-|

不確定度: 0

最終更新:2014年12月12日 00:13