unisonote
onoken

BASIC

Level: 2
BPM: 168
Notes: 186

1
口口口口 |----|
口口口口 |----|
口口口口 |----|
口口口口 |----|
2
口口口口 |①---|
①口口口 |----|
口口口口 |----|
口口口口 |----|
3
口口口口 |①---|
口口口① |----|
口口口口 |----|
口口口口 |----|
4
口口口口 |①---|
口口口口 |----|
①口口口 |----|
口口口口 |----|
5
口口口口 |①---|
口②②口 |----|
口口口① |②---|
口口口口 |----|
6
①②③口 |--①-|
口口口口 |----|
口口口口 |②---|
口口口口 |--③-|
7
口口口① |----|
口口口② |①---|
口口口口 |--②-|
口口口口 |----|
8
口口口口 |--①-|
口口口口 |----|
①②③口 |②---|
口口口口 |--③-|
9
口口口口 |----|
口口口口 |①---|
口口口① |--②-|
口口口② |----|
10
口口口口 |①---|
口①②口 |----|
口口口口 |②---|
口口口口 |----|
11
口口口口 |①---|
口口口口 |②---|
口①②③ |③---|
口口口口 |----|
12
口①①口 |①---|
口口口口 |----|
口②③口 |②---|
口口口口 |③---|
13
口口口口 |①---|
口口口口 |----|
口口口① |②---|
口②②口 |----|
14
口口口口 |①---|
口①②口 |----|
口口口口 |②---|
口口口口 |----|
15
口口口口 |①---|
口口口口 |②---|
口①②③ |③---|
口口口口 |----|
16
口①①口 |①---|
口口口口 |----|
口②③口 |②---|
口口口口 |③---|
17
口口口口 |①---|
口口口口 |----|
口口口① |②---|
口②②口 |----|
18
口①①口 |①---|
口口口口 |----|
口口口口 |----|
口口口口 |----|
19
口口口口 |----|
口口口口 |----|
口口口口 |----|
口口口口 |----|
20
口口口口 |①---|
口①①口 |----|
口口口口 |----|
口口口口 |----|
21
口口口口 |----|
口口口口 |----|
口口口口 |----|
口口口口 |----|
22
口口口口 |①---|
口口口口 |----|
口①①口 |----|
口口口口 |----|
23
口口口口 |----|
口口口口 |----|
口口口口 |----|
口口口口 |----|
24
口口口口 |①---|
口口口口 |----|
口口口口 |----|
口①①口 |----|
25
口口口口 |----|
口口口口 |----|
口口口口 |----|
口口口口 |----|
26
口口口口 |①---|
口口口口 |----|
口口口口
口①①口
27
口①①口 |①---|
②口口② |----|
口口口口 |②---|
口口口口 |----|
28
口口口口 |----|
口口口口 |----|
口口口口 |----|
口口口口 |----|
29
口口口口 |①---|
口口口口 |----|
口①①口 |②---|
②口口② |----|
30
口①①口 |----|
口口口口 |----|
口口口口 |①---|
口口口口 |----|
31
口口口口 |①---|
①口口① |----|
口口口口 |②---|
口②②口 |----|
32
口口口口 |----|
口①①口 |----|
口口口口 |①---|
口口口口 |----|
33
口口口口 |①---|
口口口口 |----|
①口口② |②---|
口口口口 |----|
34
口口口口 |①---|
口口口口 |----|
口口口口 |----|
口①①口 |----|
35
口口口口 |①---|
①②口口 |----|
口口口口 |②---|
口口口口 |----|
36
口口口口 |①---|
口口①口 |----|
口口口口 |----|
口口口口 |----|
37
口口口口 |①---|
口口口口 |----|
口口②① |②---|
口口口口 |----|
38
口口口口 |①---|
口口口口 |----|
口①口口 |----|
口口口口 |----|
39
口①①口 |①---|
口口口口 |----|
②③口口 |②---|
口口口口 |③---|
40
口口口口 |①---|
口口口口 |②---|
口口①② |----|
口口口口 |----|
41
口①①口 |①---|
口②②口 |----|
口口口口 |②---|
口口口口 |----|
42
口口口口 |①---|
口口口口 |----|
口①①口 |----|
口口口口 |----|
43
口口口口 |①---|
口口口口 |----|
①①①① |----|
口口口口 |----|
44
口口口口 |----|
口口口口 |----|
口口口口 |----|
口口口口 |----|
45
口口口口 |①---|
①口口② |----|
①口口② |②---|
口口口口 |----|
46
口口口口 |----|
口口口口 |----|
口口口口 |----|
口口口口 |----|
47
①①①① |①---|
口口口口 |----|
口口口口 |----|
口口口口 |----|
48
口口口口 |----|
口口口口 |----|
口口口口 |----|
口口口口 |----|
49
口①①口 |①---|
口②②口 |----|
口口口口 |②---|
口口口口 |----|
50
口口口口 |①---|
口口口口 |----|
口①①口 |②---|
口②②口 |----|
51
①口口① |①---|
②口口② |----|
口口口口 |②---|
口口口口 |----|
52
口口口口 |①---|
口口口口 |----|
①口口① |②---|
②口口② |----|
53
口口口口 |①---|
口①①口 |----|
口①①口 |----|
口口口口 |----|
54
口口口口 |----|
口口口口 |----|
口口口口 |----|
口口口口 |----|
55
口口口口 |----|
口口口口 |----|
口口口口 |----|
口口口口 |----|
56
口口口口 |----|
口口口口 |----|
口口口口 |----|
口口口口 |----|
57
口口口口 |①---|
①②口口 |----|
口口口口 |②---|
口口口口 |----|
58
口口口口 |①---|
口口①② |----|
口口口口 |②---|
口口口口 |----|
59
口口口口 |①---|
口口口口 |----|
口口②① |②---|
口口口口 |----|
60
口口口口 |①---|
口口口口 |----|
②①口口 |②---|
口口口口 |----|
61
①口口② |①---|
口口口口 |----|
口口口口 |②---|
口口口口 |----|
62
口口口口 |①---|
①口口② |----|
口口口口 |②---|
口口口口 |----|
63
口口口口 |①---|
口口口口 |----|
口②②口 |②---|
口①①口 |----|
64
口②②口 |①---|
口①①口 |----|
口口口口 |②---|
口口口口 |----|
65
口口口口 |①---|
口口口口 |----|
①口口① |----|
口口口口 |----|
66
口口口口 |----|
口口口口 |----|
口口口口 |①---|
口①①口 |----|
67
①口口① |①---|
口口口口 |----|
口口口口 |----|
口口口口 |----|
68
①②口口 |①---|
口口口口 |----|
口口口口 |②---|
口口口口 |----|
69
口口①口 |①---|
口口口口 |----|
口口口口 |----|
口口口口 |----|
70
口口口口 |①---|
口口②① |----|
口口口口 |②---|
口口口口 |----|
71
口口口口 |①---|
口①口口 |----|
口口口口 |----|
口口口口 |----|
72
口口口口 |----|
口口口口 |----|
口口口口 |----|
口口口口 |----|
73
口口口口 |①---|
①口口② |②---|
口口口口 |----|
口口口口 |----|
74
口口口口 |①---|
口②②口 |----|
口口口口 |②---|
口①①口 |----|
75
①口口① |①---|
②口口② |----|
口口口口 |②---|
口口口口 |----|
76
口口口口 |①---|
口口口口 |----|
①口口① |②---|
②口口② |----|
77
①②③④ |①---|
口口口口 |②---|
口口口口 |③---|
口口口口 |④---|
78
口口口口 |①---|
④③②① |②---|
口口口口 |③---|
口口口口 |④---|
79
口口口口 |①---|
口口口口 |----|
口①②口 |②---|
口口口口 |----|
80
口口口口 |①---|
口口口口 |----|
口口口口 |②---|
口①②口 |----|
81
口口口口 |①---|
口口口口 |----|
①口口② |②---|
口口口口 |----|
82
口口口口 |①---|
①口口② |----|
口口口口 |②---|
口口口口 |----|
83
口②②口 |①---|
口口口口 |②---|
口①①口 |----|
口口口口 |----|

不確定度: 0

最終更新:2022年02月26日 02:22