Mono Logic
DJ NAGAI feat. Ayumi Nomiya

BASIC

Level: 4
BPM: 186
Notes: 326

1
口口口口 |----|
口口口口 |----|
口口口口 |----|
口口口口 |----|
2
口口口口 |①---|
口口口口 |----|
口②②口 |②---|
口①①口 |----|
3
口②②口 |①---|
口①①口 |----|
③口口③ |②---|
③口口③ |③---|
4
口口口口 |①---|
①口口② |----|
口口口口 |②---|
口口口口 |----|
5
口口口口 |①---|
口②②口 |----|
口①①口 |②---|
口口口口 |----|
6
口口口口 |①---|
口口口口 |----|
①口口② |②---|
口口口口 |----|
7
口②②口 |①---|
口口口口 |----|
口口口口 |②---|
口①①口 |----|
8
口口口口 |①---|
①口口② |----|
口口口口 |②---|
口口口口 |----|
9
口口口口 |①---|
口②②口 |----|
口①①口 |②---|
口口口口 |----|
10
①口口① |①---|
②口口② |----|
口口口口 |②---|
口口口口 |----|
11
口口口口 |①---|
口口口口 |----|
①口口① |②---|
②口口② |----|
12
口口口口 |①---|
口口②口 |----|
口①口口 |②---|
口口口口 |----|
13
口口口① |①---|
口口口口 |----|
②口口口 |②---|
口口口口 |----|
14
口口口口 |①---|
口②口口 |----|
口口①口 |②---|
口口口口 |----|
15
①口口口 |①---|
口口口口 |----|
口口口② |②---|
口口口口 |----|
16
口口①① |①---|
口口口口 |----|
②口口口 |②---|
口口口口 |----|
17
①①口口 |①---|
口口口口 |----|
口口口口 |②---|
口②②口 |----|
18
口口口口 |①---|
口②②口 |----|
口①①口 |②---|
口口口口 |----|
19
①口口① |①---|
口口口口 |----|
口口口口 |----|
口口口口 |----|
20
口①口口 |①---|
②口口口 |----|
口口口口 |②---|
口口口口 |----|
21
口口口口 |①---|
口口口口 |----|
口①口口 |②---|
②口口口 |----|
22
口口口口 |①---|
口口②口 |----|
口口①口 |②---|
口口口口 |----|
23
口口口口 |①---|
②②口口 |----|
①①口口 |②---|
口口口口 |----|
24
口口①口 |①---|
口口口② |----|
口口口口 |②---|
口口口口 |----|
25
口口口口 |①---|
口口口口 |----|
口口①口 |②---|
口口口② |----|
26
口口口口 |①---|
口①口口 |----|
口①口口 |----|
口口口口 |----|
27
口口口口 |----|
②口口① |----|
②口口① |①---|
口口口口 |②---|
28
口口④口 |①---|
口口③口 |②---|
口口②口 |③---|
口口①口 |④---|
29
口④口口 |①---|
口③口口 |②---|
口②口口 |③---|
口①口口 |④---|
30
口口口口 |①---|
口口口口 |②---|
④口口③ |③---|
②口口① |④---|
31
口②①口 |①---|
口④③口 |②---|
口口口口 |③---|
口口口口 |④---|
32
口口口④ |①---|
口口口③ |②---|
口口口② |③---|
口口口① |④---|
33
④口口口 |①---|
③口口口 |②---|
②口口口 |③---|
①口口口 |④---|
34
口④④口 |①---|
口③③口 |②---|
口②②口 |③---|
口①①口 |④---|
35
①口口① |①---|
②口口② |②---|
③口口③ |③---|
④口口④ |④---|
36
口口④口 |①---|
口口③口 |②---|
口口②口 |③---|
口口①口 |④---|
37
口④口口 |①---|
口③口口 |②---|
口②口口 |③---|
口①口口 |④---|
38
口口口口 |①---|
口口口口 |②---|
④口口③ |③---|
②口口① |④---|
39
口②①口 |①---|
口④③口 |②---|
口口口口 |③---|
口口口口 |④---|
40
口口口④ |①---|
口口口③ |②---|
口口口② |③---|
口口口① |④---|
41
④口口口 |①---|
③口口口 |②---|
②口口口 |③---|
①口口口 |④---|
42
口④④口 |①---|
口③③口 |②---|
口②②口 |③---|
口①①口 |④---|
43
①口口① |①---|
②口口② |②---|
③口口③ |③---|
④口口④ |④---|
44
②口口② |①---|
口①①口 |----|
口①①口 |----|
口口口口 |--②-|
45
口口口口 |----|
口口口口 |①---|
口口口口 |----|
①口口① |----|
46
口口口口 |①---|
口口②口 |----|
口口①口 |②---|
口口口口 |----|
47
口口口① |①---|
口口口口 |----|
口口口口 |----|
口口口口 |----|
48
口口口口 |①---|
口口口口 |----|
口②口口 |②---|
口①口口 |----|
49
口口口口 |①---|
①口口口 |----|
口口口口 |----|
口口口口 |----|
50
口口口口 |①---|
口口口口 |----|
口口②口 |②---|
口口①口 |----|
51
口口口口 |①---|
口口口① |----|
口口口口 |----|
口口口口 |----|
52
口口口口 |①---|
口②口口 |----|
口①口口 |②---|
口口口口 |----|
53
①口口口 |①---|
口口口口 |----|
口口口口 |----|
口口口口 |----|
54
口口口口 |①---|
口①①口 |----|
口口口口 |----|
口口口口 |----|
55
口口口口 |----|
口口口口 |----|
口口口口 |----|
口口口口 |----|
56
口口口口 |①---|
口口口口 |----|
口①①口 |----|
口口口口 |----|
57
①口口① |①---|
口口口口 |--②-|
口口口口 |----|
②口口② |----|
58
口口口口 |①---|
口口口口 |②---|
口③④口 |③---|
口①②口 |④---|
59
口③④口 |①---|
口①②口 |②---|
口口口口 |③---|
口口口口 |④---|
60
①口口② |①---|
③口口④ |②---|
口口口口 |③---|
口口口口 |④---|
61
口口口口 |①---|
口③④口 |②---|
①口口② |③---|
口口口口 |④---|
62
①口口① |①---|
口口口口 |----|
口口口口 |----|
口口口口 |----|
63
口口口口 |①---|
口②②口 |----|
口②②口 |----|
①口口① |②---|
64
口口口口 |①---|
口口口口 |②---|
④口口③ |③---|
②口口① |④---|
65
口②①口 |①---|
口④③口 |②---|
口口口口 |③---|
口口口口 |④---|
66
口口口④ |①---|
口口口③ |②---|
口口口② |③---|
口口口① |④---|
67
④口口口 |①---|
③口口口 |②---|
②口口口 |③---|
①口口口 |④---|
68
口④④口 |①---|
口③③口 |②---|
口②②口 |③---|
口①①口 |④---|
69
①口口① |①---|
②口口② |②---|
③口口③ |③---|
④口口④ |④---|
70
口口④口 |①---|
口口③口 |②---|
口口②口 |③---|
口口①口 |④---|
71
口④口口 |①---|
口③口口 |②---|
口②口口 |③---|
口①口口 |④---|
72
口口口口 |①---|
口口口口 |②---|
④口口③ |③---|
②口口① |④---|
73
口②①口 |①---|
口④③口 |②---|
口口口口 |③---|
口口口口 |④---|
74
口口口④ |①---|
口口口③ |②---|
口口口② |③---|
口口口① |④---|
75
④口口口 |①---|
③口口口 |②---|
②口口口 |③---|
①口口口 |④---|
76
口④④口 |①---|
口③③口 |②---|
口②②口 |③---|
口①①口 |④---|
77
①口口① |①---|
②口口② |②---|
③口口③ |③---|
④口口④ |④---|
78
②口口② |①---|
口①①口 |----|
口①①口 |----|
口口口口 |--②-|
79
口口口口 |----|
口口口口 |①---|
口口口口 |----|
①口口① |----|
80
口口口口 |①---|
①口口② |----|
口口口口 |②---|
口口口口 |----|
81
口口口口 |①---|
口②②口 |----|
口①①口 |②---|
口口口口 |----|
82
口口口口 |①---|
口口口口 |----|
①口口② |②---|
口口口口 |----|
83
口②②口 |①---|
口口口口 |----|
口口口口 |②---|
口①①口 |----|
84
口口口口 |①---|
①口口② |----|
口口口口 |②---|
口口口口 |----|
85
口口口口 |①---|
口②②口 |----|
口①①口 |②---|
口口口口 |----|
86
①口口① |①---|
②口口② |----|
口口口口 |②---|
口口口口 |----|
87
口口口口 |①---|
口口口口 |----|
①口口① |②---|
②口口② |----|
88
口口口口 |①---|
口①①口 |----|
口②②口 |②---|
口口口口 |----|
89
口口口口 |①---|
口口口口 |----|
口口口口 |②---|
①②口口 |----|
90
口口口口 |①---|
口口口口 |----|
口口口口 |②---|
口口①② |----|
91
口口口口 |-①----|
口①口口 |----|
口口口口 |----|
口口口口 |----|

不確定度: 0

最終更新:2014年09月02日 15:27