HYDRA
96

BASIC

Level: 3
BPM: 277
Notes: 235

1
口口口口 |----|
口口口口 |----|
口口口口 |----|
口口口口 |----|
2
口口口口 |----|
口口口口 |----|
口口口口 |----|
口口口口 |----|
3
口口口口 |①---|
口口口口 |----|
口口口口 |----|
①①①① |----|
4
口口口口 |----|
口口口口 |----|
口口口口 |----|
口口口口 |----|
5
口口口口 |①---|
口口口口 |----|
①①①① |----|
口口口口 |----|
6
口口口口 |----|
口口口口 |----|
口口口口 |----|
口口口口 |----|
7
口口口口 |①---|
①①①① |----|
口口口口 |----|
口口口口 |----|
8
口口口口 |----|
口口口口 |----|
口口口口 |----|
口口口口 |----|
9
①①①① |①---|
口口口口 |----|
口口口口 |----|
口口口口 |----|
10
口口口口 |----|
口口口口 |----|
口口口口 |----|
口口口口 |----|
11
口口口口 |①---|
①②口口 |----|
口口口口 |②---|
口口口口 |----|
12
口口口② |①---|
口口①③ |----|
口口口口 |②---|
口口口口 |③---|
13
口口口口 |①---|
口口口口 |----|
口口②① |②---|
口口口口 |----|
14
口口口口 |①---|
口口口口 |----|
③①口口 |②---|
②口口口 |③---|
15
口口口口 |①---|
①②口口 |----|
口口口口 |②---|
口口口口 |----|
16
口口口② |①---|
口口①③ |----|
口口口口 |②---|
口口口口 |③---|
17
口口口口 |①---|
口口口口 |----|
②口口① |----|
口口口口 |②---|
18
口口口口 |----|
口口口口 |----|
口①①口 |①---|
口口口口 |----|
19
②口口① |①---|
口口口口 |----|
口口口口 |②---|
口口口口 |----|
20
口口口口 |①---|
口口口① |----|
口②③口 |②---|
口口口口 |③---|
21
口口口口 |①---|
口口口口 |----|
口口口口 |②---|
①口口② |----|
22
口口口口 |①---|
口③②口 |----|
①口口口 |②---|
口口口口 |③---|
23
②口口① |①---|
口口口口 |----|
口口口口 |②---|
口口口口 |----|
24
口口口口 |①---|
口口口① |----|
口②③口 |②---|
口口口口 |③---|
25
口口口口 |①---|
口口口口 |----|
口口口口 |②---|
①口口② |----|
26
口口口口 |①---|
口③②口 |----|
①口口口 |②---|
口口口口 |③---|
27
口②①口 |①---|
口口口口 |----|
口口口口 |②---|
口口口口 |----|
28
口口口口 |①---|
口口①口 |----|
②口口③ |②---|
口口口口 |③---|
29
口口口口 |①---|
口口口口 |----|
口口口口 |②---|
口①②口 |----|
30
口口口口 |①---|
③口口② |----|
口①口口 |②---|
口口口口 |③---|
31
口②①口 |①---|
口口口口 |----|
口口口口 |②---|
口口口口 |----|
32
口口口口 |①---|
口口①口 |----|
②口口③ |②---|
口口口口 |③---|
33
口口口口 |①---|
口口口口 |----|
口口口口 |②---|
口①②口 |----|
34
口口口口 |①---|
口③②口 |----|
口①口口 |②---|
口口口口 |③---|
35
口口口① |①---|
口口口口 |----|
口口口口 |----|
口口口口 |----|
36
口口①口 |①---|
口口口口 |----|
口口口口 |----|
口口口口 |----|
37
口口口口 |①---|
①口口口 |----|
口②口口 |②---|
口口口口 |----|
38
口口口口 |①---|
口口①口 |----|
口口口② |②---|
口口口口 |----|
39
口口口口 |①---|
口口口口 |----|
口口口口 |----|
①口口口 |----|
40
口口口口 |①---|
口口口口 |----|
口口口口 |----|
口①口口 |----|
41
口口口口 |①---|
口口②口 |----|
口口口① |②---|
口口口口 |----|
42
口口口口 |①---|
②口口口 |----|
口①口口 |②---|
口口口口 |----|
43
口口口① |①---|
口口口口 |----|
口口口口 |----|
口口口口 |----|
44
口口①口 |①---|
口口口口 |----|
口口口口 |----|
口口口口 |----|
45
口口口口 |①---|
①口口口 |----|
口②口口 |②---|
口口口口 |----|
46
口口口口 |①---|
口口①口 |----|
口口口② |②---|
口口口口 |----|
47
口口口口 |①---|
口口口口 |----|
口口口口 |----|
①口口口 |----|
48
口口口口 |①---|
口口口口 |----|
口口口口 |----|
口①口口 |----|
49
口口口口 |①---|
口口②口 |----|
口口口① |②---|
口口口口 |----|
50
口口口口 |①---|
口口口口 |----|
①①口口 |----|
口口口口 |----|
51
口口口口 |①---|
口口口② |----|
口口口① |②---|
口口口口 |----|
52
口口口口 |①---|
口口②口 |----|
口口①口 |②---|
口口口口 |----|
53
口口口口 |①---|
口②口口 |----|
口①口口 |②---|
口口口口 |----|
54
口口口口 |①---|
②口口口 |----|
①口口口 |②---|
口口口口 |----|
55
口②①口 |①---|
口口口口 |----|
口口口口 |②---|
口口口口 |----|
56
口口口口 |①---|
口②①口 |----|
口口口口 |②---|
口口口口 |----|
57
口口口口 |①---|
口口口口 |----|
①口口① |----|
口口口口 |----|
58
口口口口 |----|
口口口口 |----|
口口口口 |①---|
口①①口 |----|
59
口口口口 |①---|
②口口口 |----|
①口口口 |②---|
口口口口 |----|
60
口口口口 |①---|
口②口口 |----|
口①口口 |②---|
口口口口 |----|
61
口口口口 |①---|
口口②口 |----|
口口①口 |②---|
口口口口 |----|
62
口口口口 |①---|
口口口② |----|
口口口① |②---|
口口口口 |----|
63
口①②口 |①---|
口口口口 |----|
口口口口 |②---|
口口口口 |----|
64
口口口口 |①---|
口①②口 |----|
口口口口 |②---|
口口口口 |----|
65
口口口口 |①---|
口口口口 |----|
①口口① |----|
口口口口 |----|
66
口口口口 |----|
口口口口 |----|
口口口口 |----|
口口口口 |----|
67
口口口口 |①---|
口口口口 |----|
口②口口 |②---|
口①口口 |----|
68
口②口口 |①---|
口①口口 |----|
口口口口 |②---|
口口口口 |----|
69
口口口口 |①---|
①口口① |----|
口口口口 |----|
口口口口 |----|
70
口口口口 |①---|
口口口口 |----|
①口口① |----|
口口口口 |----|
71
口口口口 |①---|
口口口口 |----|
口口②口 |②---|
口口①口 |----|
72
口口②口 |①---|
口口①口 |----|
口口口口 |②---|
口口口口 |----|
73
口口口口 |①---|
①口口① |----|
口②②口 |②---|
口口口口 |----|
74
口口口口 |①---|
口口口口 |----|
口口口口 |----|
①口口① |----|
75
口口口口 |①---|
口口口口 |----|
口②口口 |②---|
口①口口 |----|
76
口②口口 |①---|
口①口口 |----|
口口口口 |②---|
口口口口 |----|
77
口口口口 |①---|
①口口① |----|
②口口② |②---|
口口口口 |----|
78
口口口口 |①---|
口口口口 |----|
口口口口 |----|
①口口① |----|
79
口口口口 |①---|
口口口口 |----|
口口②口 |②---|
口口①口 |----|
80
口口②口 |①---|
口口①口 |----|
口口口口 |②---|
口口口口 |----|
81
口口口口 |①---|
①口口① |----|
口口口口 |----|
口口口口 |----|
82
口口口口 |①---|
口口口口 |----|
①口口① |----|
口口口口 |----|
83
口口口口 |①---|
口①②口 |----|
口口口口 |②---|
口口口口 |----|
84
口口口口 |①---|
口口口口 |----|
口①②口 |②---|
口口口口 |----|
85
口口口口 |①---|
口口口口 |----|
口口口口 |②---|
口①②口 |----|
86
口口口口 |①---|
口口口口 |----|
①口口① |----|
口口口口 |----|
87
②口口① |①---|
口口口口 |----|
口口口口 |②---|
口口口口 |----|
88
口口口口 |①---|
口口口① |----|
口②③口 |②---|
口口口口 |③---|
89
口口口口 |①---|
口口口口 |----|
口口口口 |②---|
①口口② |----|
90
口口口口 |①---|
口③②口 |----|
①口口口 |②---|
口口口口 |③---|
91
②口口① |①---|
口口口口 |----|
口口口口 |②---|
口口口口 |----|
92
口口口口 |①---|
口口口① |----|
口②③口 |②---|
口口口口 |③---|
93
口口口口 |①---|
口口口口 |----|
口口口口 |②---|
①口口② |----|
94
口口口口 |①---|
口③②口 |----|
①口口口 |②---|
口口口口 |③---|
95
口②①口 |①---|
口口口口 |----|
口口口口 |②---|
口口口口 |----|
96
口口口口 |①---|
口口①口 |----|
②口口③ |②---|
口口口口 |③---|
97
口口口口 |①---|
口口口口 |----|
口口口口 |②---|
口①②口 |----|
98
口口口口 |①---|
③口口② |----|
口①口口 |②---|
口口口口 |③---|
99
口②①口 |①---|
口口口口 |----|
口口口口 |②---|
口口口口 |----|
100
口口口口 |①---|
口口①口 |----|
②口口③ |②---|
口口口口 |③---|
101
口口口口 |①---|
口口口口 |----|
口口口口 |②---|
口①②口 |----|
102
口口口口 |①---|
口③②口 |----|
口①口口 |②---|
口口口口 |③---|
103
口口口① |①---|
口口口口 |----|
口口口口 |----|
口口口口
104
口口①口 |----|
口口口口 |①---|
口口口口 |----|
口口口口
105
口①口口 |----|
口口口口 |----|
口口口口 |①---|
口口口口 |----|
106
口口口口 |①---|
口口①口 |----|
口口②口 |②---|
口口口口 |----|
107
口口口口 |①---|
口口口口 |----|
口口口口 |----|
①口口口
108
口口口口 |----|
口口口口 |①---|
口口口口 |----|
口①口口
109
口口口口 |----|
口口口口 |----|
口口口口 |①---|
口口①口 |----|
110
口口口口 |①---|
口②口口 |----|
口①口口 |②---|
口口口口 |----|
111
口口口① |①---|
口口口口 |----|
口口口口 |----|
口口口口
112
口口①口 |----|
口口口口 |①---|
口口口口 |----|
口口口口
113
口①口口 |----|
口口口口 |----|
口口口口 |①---|
口口口口 |----|
114
口口口口 |①---|
口口①口 |----|
口口②口 |②---|
口口口口 |----|
115
口口口口 |①---|
口口口口 |----|
口口口口 |----|
①口口口
116
口口口口 |----|
口口口口 |①---|
口口口口 |----|
口①口口
117
口口口口 |----|
口口口口 |----|
口口口口 |①---|
口口①口 |----|
118
口口口口 |①---|
口②口口 |----|
口①口口 |②---|
口口口口 |----|
119
口口口口 |①---|
口口口口 |----|
①口口① |----|
口口口口 |----|

不確定度: 0

最終更新:2014年09月02日 15:25