温故知新でいこっ!
日向美ビタースイーツ♪

EXTREME

Level: 8
BPM: 118
Notes: 662

1
口①②口 |----|
①口口② |----|
口③④口 |①-②-|
③口口④ |③-④-|
2
口④④口 |①---|
口③②口 |②-③-|
③⑤⑥② |④---|
⑤①①⑥ |⑤-⑥-|
3
口口口口 |①---|
②①①② |----|
②口口② |②---|
口口口口 |----|
4
口口口口 |①---|
口①①口 |----|
口①①口 |②---|
②口口② |----|
5
①口口① |①---|
口口口口 |----|
口口口口 |----|
口口口口 |----|
6
③②②口 |①---|
口②口② |②---|
②②口口 |----|
②②口① |--③-|
7
⑤⑥⑦口 |①---|
口口②口 |②-③-|
口③口口 |④-⑤⑥|
⑧口④① |⑦--⑧|
8
口⑨⑨⑩ |①②③④|
⑥②⑤① |⑤⑥⑦⑧|
⑧④⑦③ |⑨--⑩|
⑪⑫⑬⑭ |⑪⑫⑬⑭|
9
①口⑥⑦ |①---|
⑧口⑨口 |②③④⑤|
⑤④③② |⑥--⑦|
口⑩口⑪ |⑧⑨⑩⑪|
10
⑤①②口 |①②③④|
口口口⑥ |⑤⑥⑦⑧|
⑦③④口
口口⑧口

口⑪口⑩
口口⑫口
口⑪口⑩ |⑨--⑩|
⑬⑨口口 |⑪⑫-⑬|
11
③口口口 |①②③-|
③①⑤② |④-⑤-|
口⑤口④
口口口④

⑩⑥⑨⑫
⑩⑩口口
口口⑪⑪ |⑥⑦⑧⑨|
⑫⑧⑦⑪ |⑩-⑪⑫|
12
口⑤⑤口 |----|
口口③④ |--①-|
①②口口 |②-③-|
口口口口 |④-⑤-|
13
③口口口 |①-②-|
②④口口 |③④⑤⑥|
口口⑤②
口①①⑥

口⑩⑨⑧
口口⑫口
口口口口 |⑦-⑧⑨|
⑦⑪口口 |⑩-⑪⑫|
14
①口口口 |①②③④|
口③口口 |⑤---|
口口②口
⑤口口④

口口⑥⑥
口口口⑥
⑧口口⑦ |--⑥-|
⑧⑧⑦⑦ |⑦-⑧-|
15
①①⑤③ |①-②-|
①④口口 |③-④⑤|
口口②口
口口口口

⑧口口口
口口口口
⑥口口口 |--⑥-|
口口⑦口 |⑦-⑧-|
16
口②①② |①-②-|
口①③① |③-④⑤|
口②①②
④口口⑤

口⑧⑧口
⑦⑧口口
⑦⑦⑥口 |--⑥-|
口⑥⑥口 |⑦-⑧-|
17
②口口③ |①-②-|
口口①① |③-④-|
口口口①
④口口口

⑥口口口
口口口口
口口口口 |--⑤-|
口⑦口⑤ |⑥-⑦-|
18
③口口③ |①--②|
口口口口 |--③-|
口②②口 |----|
口口①口 |----|
19
③口④口 |①②③④|
口①口② |⑤⑥⑦⑧|
⑦⑧口口
⑤口⑥口

口⑪口口
口⑭⑬⑫
口口⑨⑩ |⑨⑩⑪⑫|
口口口口 |⑬⑭--|
20
口口口② |①-②③|
③口⑦⑥ |④⑤⑥⑦|
口口⑤④
口①①口

口口⑨口
口⑩口口
⑧口口⑪ |⑧⑨⑩-|
口口⑫⑬ |-⑪⑫⑬|
21
③④口口 |①②--|
⑤⑥口口 |③④⑤⑥|
口②口口
①口口口

口口⑨⑨
口口口口
⑧⑧口口 |--⑦⑧|
口口⑦⑦ |⑨---|
22
口④口口 |①---|
④②③① |②③④-|
口③②④
口口④口

口口⑤⑤
口⑥口口
口口⑥口 |----|
口口口口 |⑤-⑥-|
23
②②口口 |①-②-|
口口③口 |③-④-|
口③口口
①①④④

口⑧口口
⑤口⑨⑥
口⑩⑦口 |⑤⑥-⑦|
口⑦口口 |⑧⑨⑩-|
24
④口⑤① |①②③④|
口⑥⑥口 |⑤---|
口⑧⑧口 |--⑥-|
③⑨⑦② |⑦⑧-⑨|
25
④口口口 |①②③-|
口口⑤① |④⑤⑥⑦|
⑥口口②
口口⑦③

口口口口
口口口⑪
口⑨⑩口 |⑧⑨⑩⑪|
⑧口口口 |----|
26
④③②① |①---|
口口口口 |②---|
口口口口 |③---|
口口口口 |④---|
27
口口口口 |①---|
口口口口 |----|
口口口口
①口口口

口口②②
口口②口
口④③③ |--②-|
④④口③ |③-④-|
28
①④⑤口 |①-②-|
①①口③ |③-④⑤|
口口口口
口口②口

⑧口口口
口口口口
⑥口口口 |--⑥-|
口口⑦口 |⑦-⑧-|
29
口口②② |①-②-|
①口①口 |③-④⑤|
③④③⑤
口口口口

⑥⑥口⑦
口⑥⑦⑦
口口⑧口 |--⑥-|
口口⑧⑧ |⑦-⑧-|
30
④口口口 |①-②-|
口口口口 |③-④-|
①①口③
①②口口

口口⑦口
口⑥口口
口口⑤口 |⑤-⑥-|
口⑧口口 |⑦-⑧-|
31
③口口③ |①--②|
口口口口 |--③-|
口②②口 |----|
口口①口 |----|
32
口口口口 |--①-|
③③口口 |②-③-|
口②②口
口口①①

口⑤④④
口口⑤口
口口口口 |④--⑤|
口⑥⑥口 |--⑥-|
33
①⑥⑤② |--①-|
⑥口口⑤ |②-③④|
⑤③④⑥ |----|
口⑤⑥口 |⑤-⑥-|
34
①⑤④① |--①-|
⑤②②④ |②-③-|
口③③口 |④--⑤|
口⑥⑥口 |--⑥-|
35
口③③口 |----|
口③口③ |----|
②②口口 |--①-|
①①口口 |②-③-|
36
②⑤口⑤ |--①-|
②口③口 |②-③-|
口口③口 |④---|
口④④① |⑤---|
37
口口口口 |①-②-|
②②①① |----|
①①②②
口口口口

口口口口
口口⑤口
口④口口 |--③-|
③口口口 |④-⑤-|
38
口口口① |----|
②口口口 |----|
口口口③ |①-②-|
④口口口 |③-④-|
39
口③②① |----|
口口口口 |①---|
口口口口 |②---|
口口口口 |③---|
40
①②口口 |①---|
⑤口口口 |----|
口口口③ |②-③-|
口口④口 |④-⑤-|
41
口口①① |①---|
口口②① |②-③-|
①③口口
①①口口

④④口口
④口口⑥
⑤口口④ |④---|
口口④④ |⑤-⑥-|
42
⑤⑤④④ |①-②-|
⑥③③口 |③-④-|
口②②口 |⑤---|
①①⑦口 |⑥-⑦-|
43
口口①① |①---|
口口②① |②-③-|
①③口口
①①口口

④④口口
④口口⑥
⑤口口④ |④---|
口口④④ |⑤-⑥-|
44
⑤⑤④④ |①-②-|
口③③口 |③-④-|
口②②口 |⑤---|
①①口口 |----|
45
口③②① |①-②-|
口口口④ |③-④-|
④口口口
①②③口

⑥⑦口口
⑤口口口
口口口⑤ |⑤---|
口口⑦⑥ |⑥-⑦-|
46
口口①④ |①-②-|
②⑤口③ |③---|
③口⑥② |④-⑤-|
⑦①口口 |⑥-⑦-|
47
④④口口 |①---|
④⑤③口 |②-③-|
口②⑥① |④---|
口口①① |⑤-⑥-|
48
口④③③ |①-②-|
⑦口口口 |③---|
②②口⑤ |④-⑤-|
①①⑥口 |⑥-⑦-|
49
口口①① |①---|
口口②① |②-③-|
①③口口
①①口口

④④口口
④口口⑥
⑤口口④ |④---|
口口④④ |⑤-⑥-|
50
⑤⑤④④ |①-②-|
⑥③③口 |③-④-|
口②②口 |⑤---|
①①⑦口 |⑥-⑦-|
51
口口①① |①---|
口口②① |②-③-|
①③口口
①①口口

④④口口
④口口⑥
⑤口口④ |④---|
口口④④ |⑤-⑥-|
52
⑤⑤④④ |①-②-|
口③③口 |③-④-|
口②②口 |⑤---|
①①口口 |----|
53
口③②① |①-②-|
口口口④ |③-④-|
④口口口
①②③口

⑥⑦口口
⑤口口口
口口口⑤ |⑤---|
口口⑦⑥ |⑥-⑦-|
54
口口①④ |①-②-|
②⑤口③ |③---|
③口⑥② |④-⑤-|
⑦①口口 |⑥-⑦-|
55
口口口口 |①---|
口②口口 |②-③-|
口口③①
口口①①

④④⑦口
④口口口
口口口⑥ |④-⑤-|
口口口⑤ |⑥-⑦-|
56
口①②口 |----|
①口口② |----|
口③④口 |①-②-|
③口口④ |③-④-|
57
②④④③ |①---|
④①①④ |②-③-|
①④④① |④---|
⑤①①⑥ |⑤-⑥-|
58
②③④口 |①---|
③①①④ |②---|
①⑤⑥① |③-④-|
⑤①①⑥ |⑤-⑥-|
59
②④④③ |①---|
④①①④ |②-③-|
①④④① |④---|
⑤①①⑥ |⑤-⑥-|
60
②口口口 |①---|
口①①口 |②---|
①口口① |----|
口①①口 |----|

不確定度: 0

最終更新:2014年12月12日 00:11