らいらら
KRD8

EXTREME

Level: 9
BPM: 155
Notes: 636

1
口口口口 |----|
口口口口 |----|
口口口口 |----|
口口口口 |----|
2
口⑥⑦口 |①-②-|
口口口⑤ |③-④-|
③②口口 |⑤---|
①④口口 |⑥-⑦-|
3
口口口口 |①-②-|
口口⑤口 |③-④-|
①⑥⑧③ |⑤⑥⑦-|
⑦⑨④② |⑧-⑨-|
4
口口④① |①-②-|
口口口口 |③-④-|
口⑧⑤② |⑤-⑥-|
口⑦⑥③ |⑦-⑧-|
5
口①口口 |①--②|
口③②口 |--③-|
口口④口 |④--⑤|
口⑤⑥口 |--⑥-|
6
④①①口 |①---|
⑤②②口 |②---|
⑥③③口 |③---|
⑦口口口 |④⑤⑥⑦----|
7
⑥⑤口口 |①-②-|
⑤①②① |③-④-|
口③④③ |⑤-⑥-|
口⑦⑧⑦ |⑦-⑧-|
8
⑤⑧②⑧ |①-②③|
口③口⑦ |④-⑤-|
口①④① |⑥-⑦-|
⑨⑥口⑥ |⑧-⑨-|
9
口口⑤⑥ |①-②-|
③④③⑤ |③-④-|
①②①口 |⑤-⑥-|
⑦⑧⑦口 |⑦-⑧-|
10
口②口⑤ |①-②③|
口口③口 |④-⑤-|
①④①口 |⑥-⑦-|
⑥⑦⑧⑨ |⑧-⑨-|
11
①口口口 |①-②-|
口①口② |③-④-|
③④②口
口口口口

⑦⑥⑥口
口⑦口口
口口口⑤ |⑤-⑥-|
口口⑤口 |⑦---|
12
口口口① |①-②-|
②口①口 |③-④-|
口②④③
口口口口

口⑥⑥⑦
口口⑦口
⑤口口口 |⑤-⑥-|
口⑤口口 |⑦---|
13
④口口④ |①---|
③口口③ |②---|
②口口② |③---|
①口口① |④---|
14
口①①⑤ |①---|
口口④口 |②-③④|
口③②⑥ |⑤-⑥-|
口口⑦⑧ |⑦-⑧-|
15
①口口口 |①-②-|
口①口② |③-④-|
③④②口
口口口口

⑦⑥⑥口
口⑦口口
口口口⑤ |⑤-⑥-|
口口⑤口 |⑦---|
16
口口口① |①-②-|
②口①口 |③-④-|
口②④③
口口口口

口⑥⑥⑦
口口⑦口
⑤口口口 |⑤-⑥-|
口⑤口口 |⑦---|
17
口口口口 |①---|
③口⑤③ |②---|
②口④② |③---|
①口口① |--④⑤|
18
口口①口 |①---|
口口口口 |----|
口口口口 |----|
口口口口 |----|
19
①口口口 |①-②-|
口①口② |③-④-|
③④②口
③④口口

⑦⑥⑥口
口⑦口口
口口口⑤ |⑤-⑥-|
口口⑤口 |⑦---|
20
口口口① |①-②-|
②口①口 |③-④-|
口②④③
口口④③

口⑥⑥⑦
口口⑦口
⑤口口口 |⑤-⑥-|
口⑤口口 |⑦---|
21
⑦口④⑦ |①-②-|
⑤②口⑤ |③-④-|
③口⑧③ |⑤-⑥-|
①⑥口① |⑦-⑧-|
22
口⑤⑥⑦ |①---|
③①①② |②-③-|
口口口④ |④---|
①口口① |⑤⑥⑦-|
23
①口口口 |①-②-|
口①口② |③-④-|
③④②口
③④口口

⑦⑥⑥口
口⑦口口
口口口⑤ |⑤-⑥-|
口口⑤口 |⑦---|
24
口口口① |①-②-|
②口①口 |③-④-|
口②④③
口口④③

口⑥⑥⑦
口口⑦口
⑤口口口 |⑤-⑥-|
口⑤口口 |⑦---|
25
⑦口④⑦ |①-②-|
⑤②口⑤ |③-④-|
③口⑧③ |⑤-⑥-|
①⑥口① |⑦-⑧-|
26
⑤③③⑤ |①-②-|
口①①口 |③-④-|
④⑦口④ |⑤---|
②⑥口② |⑥-⑦-|
27
口口口口 |①---|
口①②口 |②-③-|
口口③口 |④---|
⑤口④⑤ |⑤---|
28
①口②① |①---|
口③口口 |②-③-|
口口④口 |④---|
⑤口口⑤ |⑤---|
29
口口口口 |①---|
口③口口 |--②-|
口口②口 |③---|
④①①④ |④---|
30
①口口① |①---|
口⑤④口 |----|
口③②口 |②-③-|
口口口口 |④-⑤-|
31
口口①口 |①-②③|
口口口① |④-⑤⑥|
口口⑥⑤
②③④口

口口⑫⑪
⑧⑨⑩口
口⑦口口 |⑦-⑧⑨|
口口口口 |⑩-⑪⑫|
32
口①⑫⑪ |①-②③|
⑧⑨⑩口 |④-⑤⑥|
口⑦⑥⑤ |⑦-⑧⑨|
②③④口 |⑩-⑪⑫|
33
口①口口 |①-②-|
口口口口 |③-④-|
③口⑥② |⑤---|
⑤口口④ |⑥---|
34
④口口④ |①---|
⑤口①⑤ |②---|
⑥②口⑥ |③-④-|
口口③口 |⑤-⑥-|
35
口口口口 |①-②-|
口③④口 |③-④-|
⑥①②⑥ |----|
⑤口口⑤ |⑤-⑥-|
36
②②②② |①---|
①口口① |----|
口口口口 |②---|
③③③③ |③---|
37
口②口② |①---|
口①③① |②-③-|
①口①口
口口口口

⑤口⑤口
口⑥口口
口④口口 |④---|
口口口口 |⑤-⑥-|
38
口③口③ |①---|
③④③口 |②---|
口②①② |③---|
②口②口 |--④-|
39
⑤⑥⑤口 |①-②-|
⑦⑧⑦口 |③-④-|
口③④③ |⑤-⑥-|
口①②① |⑦-⑧-|
40
④⑤口① |①---|
③口口② |②---|
②口口③ |③---|
①口⑤④ |④-⑤-|
41
④口①④ |①---|
③⑥⑤② |②-③-|
③⑧⑦② |④---|
口①口口 |⑤⑥⑦⑧|
42
口③①口 |①---|
口口口① |②-③-|
口口口口
②口②口

口口⑥口
口口④口
口口口口 |④---|
口⑤口⑤ |⑤-⑥-|
43
口口口口 |①---|
口①口口 |②---|
口②口②
②口②口

口③口③
③④③口
口口口口 |③---|
口口口口 |--④-|
44
⑤⑤⑤⑤ |①-②-|
⑥⑥⑥⑥ |③-④-|
口③④③ |⑤---|
口①②① |⑥---|
45
③②口口 |①---|
⑦⑥口口 |②-③-|
口口⑤④ |④-⑤-|
①①①① |⑥-⑦-|
46
口②口⑤ |①-②③|
口口③口 |④-⑤-|
口④口口
口①①口

⑧口口口
口口⑨口
口口口口 |⑥-⑦-|
⑦口口⑥ |⑧-⑨-|
47
口①口③ |①-②-|
④④口口 |③-④-|
①口口③
口②②口

口⑦⑤口
口口⑥⑤
⑦⑥⑧口 |⑤-⑥-|
口口口⑧ |⑦-⑧-|
48
②口口② |①-②-|
口③口④ |③-④-|
口口口④
①①③口

口口⑦口
⑤口⑤口
⑥口⑦口 |⑤-⑥-|
⑧⑧口⑥ |⑦-⑧-|
49
④②口② |①-②-|
③④口口 |③-④-|
口①口③
口口①口

口⑧⑥⑧
口口口⑤
⑥口⑤口 |⑤-⑥-|
口⑦口⑦ |⑦-⑧-|
50
口口口口 |①-②-|
①③③口 |③-④-|
④①口②
④口②口

口⑥⑦⑧
⑨口口口
口口口口 |⑤-⑥⑦|
口⑤口⑤ |⑧-⑨-|
51
①口口口 |①-②-|
口①口② |③-④-|
③④②口
③④口口

⑦⑥⑥⑧
口⑦⑧口
口口口⑤ |⑤-⑥-|
口口⑤口 |⑦-⑧-|
52
⑦⑤⑤⑥ |--①-|
①口⑥口 |②-③-|
④①③② |④-⑤-|
口④③② |⑥-⑦-|
53
⑦口④⑦ |①-②-|
⑤②口⑤ |③-④-|
③口⑧③ |⑤-⑥-|
①⑥口① |⑦-⑧-|
54
口⑦⑧⑨ |①-②-|
④①①③ |③-④-|
②⑥口⑤ |⑤-⑥-|
①口口① |⑦⑧⑨-|
55
①口口口 |①-②-|
口①口② |③-④-|
③④②口
③④口口

⑦⑥⑥⑧
口⑦⑧口
口口口⑤ |⑤-⑥-|
口口⑤口 |⑦-⑧-|
56
⑦⑤⑤⑥ |--①-|
①口⑥口 |②-③-|
④①③② |④-⑤-|
口④③② |⑥-⑦-|
57
⑦口④⑦ |①-②-|
⑤②口⑤ |③-④-|
③口⑧③ |⑤-⑥-|
①⑥口① |⑦-⑧-|
58
口③③口 |①-②-|
口①①口 |③-④-|
④口口④
①口②①

口口口口
⑤口口⑤
口口口口 |⑤---|
⑥口口⑥ |⑥---|
59
①口口口 |①-②-|
口口②口 |③-④-|
③④口口
口口口口

⑦口⑥⑧
口口口口
口口口⑤ |⑤-⑥-|
口口口口 |⑦-⑧-|
60
口⑤口⑥ |--①-|
口①口口 |②-③-|
④口③② |④-⑤-|
口口口口 |⑥---|

不確定度: 0

最終更新:2014年12月12日 00:53